BitTorrent клиенты



Спортлото-82 (Леонид Гайдай) [1983, комедия, приключения, DVD5] КП

Ответить на тему
 
Автор Сообщение

Ангел ®

Пол: Не указан

Стаж: 1 год

Сообщений: 954

Создавать темы 08-Фев-2018 15:47

[Цитировать]

Спортлото - 82«Даже если Вы этот билет потеряете, Вы ничего не потеряете»!-Год выпуска: 1982
Страна: СССР
Жанр: комедия
Продолжительность: 89 мин
Режиссер: Леонид Гайдай
В ролях: Альгис Арлаускас, Светлана Аманова, Михаил Пуговкин, Михаил Кокшенов, Денис Кмит, Нина Гребешкова, Андрей Толшин, Борислав Брондуков, Луиза Мосендз, Сергей Филиппов, Виктор Уральский, Вера Ивлева
Описание: В жаркое лето 1982-го года все охвачены отпускной горячкой и едут в отпуск на юг. В одном купе собрались разные люди. Сан Саныч (Михаил Пуговкин) — спекулянт, в данном случае собирающийся нажиться на разнице в цене апельсинов между севером и югом СССР. В соседях у афериста оказался милиционер простоватого вида, который поехал отдыхать к тёте на юг (правда, тётя сдала свободную комнату в доме Сан Санычу, а племянника поселила в курятнике). Другие соседи — парень, который собрался в горы по сложному маршруту, и девушка, получившая билет «Спортлото» от милиционера, который по рассеянности съел все её съестные припасы. Билет оказался выигрышным — но кто же знал заранее о выигрыше комбинации (1, 2, 3, 4, 5, 6)?! Билет использовали как закладку в третьесортном детективе, да вот только абсолютно одинаковые книги с абсолютно одинаковым детективом были в купе у всех и перепутались в дороге. Но это выяснилось уже по приезде на юг...- -Бонусы: нет
Меню: есть, анимированное, озвученное
Тип релиза: DVD5 ("Крупный план", серия "Отечественное кино ХХ века")
Контейнер: DVD Video
Видео: PAL 4:3 (720x576), 25 fps, VBR, 5000 kbps
Аудио: Russian (PCM, 2 ch, 1 536 Kbps, 48kHz)
Субтитры: нет

Это интересно

Доп. информация:
Сценарий: Владлен Бахнов, Леонид Гайдай
Операторы: Сергей Полуянов, Виталий Абрамов
Художник: Феликс Ясюкович
Композитор: Александр Зацепин
«Спортлото-82» — советский художественный фильм 1982 года. Один из культовых советских фильмов, лидер проката в 1982 году — свыше 55 млн зрителей.-Ляпы в фильме:
В сцене, где Сан Саныч и Степан приплывают на лодке чтобы высадить Степана и выкрасть билет, лодка на самом деле привязана уже канатом( его отчётливо видно ) . Также, когда Сан Саныч просыпается внезапно в лодке от гудка парохода и провряет якорь, коего оказывается нет, то лодка также остаётся привязаной канатом. Также, в сцене, когда Сан Саныч решает уплыть на той же лодке без Степана, показывают вид сверху где он плывёт за катером,его лодка также привязана канатом к впереди идущему катеру. В сцене, где Таня в вагоне поезда заполняет билет Спортлото, номер билета 29724053. Далее, когда Сан Санычу снится, как Степан передает ему на катере билет, номер уже 29724054. Затем возле банка к Сан Санычу подходит милиционер. И там окончание номера уже ...058. И наконец в финальной сцене, когда Таня и Костя целуются, к ним, в котелок падает билет с номером 29724052.-Интересные факты
* Место съёмок — Крым, железнодорожный вокзал — Феодосия, базар — Феодосия, стоянка автокочевников — Мыс Капчик
* Игровая комбинация, выбранная героиней фильма (1,2,3,4,5,6), была представлена зрителю, как «самая редкая» или «невероятная». На самом деле, с точки зрения комбинаторики, эта комбинация такая же обычная, как и любая другая, она имеет такие же шансы на выпадение, как и любая другая комбинация.
* В фильме активно демонстрируется не такая уж и «скрытая» реклама. Например, сама лотерея «спортлото», напиток «Байкал», знак качества СССР.
Материал из Википедии — свободной энциклопедии-Цитаты
*— Прояви смекалку. Обходились же древние люди без консервных ножей.
— Да они и консервов не ели.
*Кому апельсины, кому витамины?
*— Рубль — штучка! Три рубля — кучка! В кучке три штучки.
*От века я не отстаю — все время что-то достаю!
*Точно: медведь! Гималайский!
*Даже если Вы этот билет потеряете, Вы ничего не потеряете!
*Раньше я руководил другой базой, оптовой, так сказать. А теперь вот повысили: 2 тысячи метров над уровнем моря.
*— Зачем вы ложку под подушкой держите?
— Ну, а где же мне ее держать?
— В стакане.
— Но ведь стакан под подушку не положишь.
— А зачем вам стакан под подушкой?
— Незачем! Вот я и положил под подушку только ложку.
*— А эти ягоды можно есть?
— Можно, только отравишься.
*— С вашими талантами надо собственную машину иметь.
— Ну, одному бог даёт талант, а другому машину.
*Я его буду держать, а вы шантажировать!
*Я бы дал тебе рубль, если бы был уверен, что на эти деньги ты купишь себе хоть один грамм совести.
*Нечто подобное произошло со мной… в Монреале.
*Пытка апельсинами продолжалась третий час…
*— Много текста!
Материал из Викицитатника

Скриншоты названия и меню

Отчет MediaInfo

General
Complete name : SportLoto82\VTS_02_1.VOB
Format : MPEG-PS
File size : 1 024 MiB
Duration : 21mn 26s
Overall bit rate : 6 675 Kbps
Video
ID : 224 (0xE0)
Format : MPEG Video
Format version : Version 2
Format profile : Main@Main
Format settings, BVOP : Yes
Format settings, Matrix : Custom
Format settings, GOP : M=3, N=12
Duration : 21mn 26s
Bit rate : 5 000 Kbps
Width : 720 pixels
Height : 576 pixels
Display aspect ratio : 4:3
Frame rate : 25.000 fps
Standard : PAL
Color space : YUV
Chroma subsampling : 4:2:0
Bit depth : 8 bits
Scan type : Interlaced
Scan order : Top Field First
Compression mode : Lossy
Bits/(Pixel*Frame) : 0.482
Time code of first frame : 00:00:00:01
Time code source : Group of pictures header
Stream size : 768 MiB (75%)
Audio
ID : 189 (0xBD)-160 (0xA0)
Format : PCM
Format settings, Endianness : Big
Format settings, Sign : Signed
Muxing mode : DVD-Video
Duration : 21mn 26s
Bit rate mode : Constant
Bit rate : 1 536 Kbps
Channel count : 2 channels
Sampling rate : 48.0 KHz
Bit depth : 16 bits
Delay relative to video : -80ms
Stream size : 236 MiB (23%)
Menu

Сканы обложки и диска

Спасибо
Спасибо zim2001 за оформление!
[Профиль] [ЛС]
Показать сообщения:    
Ответить на тему

Текущее время: 20-Фев 01:02

Часовой пояс: UTC + 3



Вы не можете начинать темы
Вы не можете отвечать на сообщения
Вы не можете редактировать свои сообщения
Вы не можете удалять свои сообщения
Вы не можете голосовать в опросах
Вы не можете прикреплять файлы к сообщениям
Вы можете скачивать файлы