Статистика раздачи
Размер:  2,12 GB   |    Зарегистрирован:  3 месяца 8 дней   |    Скачан:  0 раз

Полного источника не было: Никогда

 
   
 
 

lopster ®

Пол:
Не указан
Стаж:
3 месяца 8 дней
Сообщений:
612

Счастье – это...
Жанр: Семейный, мелодрама
Год выпуска: 2015
Продолжительность: 01:38:16
Режиссёр: Артём Прохоров, Леонид Залесский, Анна Яновская, Татьяна Гулина, Виктория Козельцева, Татьяна Пономарева, Сергей Буров
В ролях: Станислав Дужников, Борис Щербаков, Валерий Гаркалин, Андрей Мерзликин, Егор Бероев, Светлана Иванова, Павел Прилучный, Сергей Пускепалис, Сергей Лавыгин, Галина Звягинцева, Алина Бабак
Описание: Семь историй с одним исходом. Сколь часто мы слышим о таком явлении в жизни человеческой, как счастье? А как часто встречаемся с ним? Наверное, каждый может не задумываясь дать определение этому понятию. Тёплый дом, в котором резвится ребятня, а твоя вторая половинка заботливо старается направлять поток детской энергии в безопасное русло. Успешно проведённая сделка и, как следствие, лишний раз утверждение себя, как настоящего добытчика. Для кого-то это первая и ставшая единственной любовь, для другого самым приятным в жизни становится простая прогулка пешком по зимнему парку и возможность наслаждаться морозным воздухом, да наблюдать за лениво спускающимися с небес снежинками...
Сэмпл
Релиз от :
Качество видео: WEB-DLRip-AVC
Формат видео: MKV
Видео: MPEG4 Video (H264), 1024x428, 25fps, 2700 Kbps, bit/pixel 0.246
Аудио: AC3, 48000Hz, stereo, 384 kbps, 6 ch

MediaInfo

x264 [info]: frame I:1029 Avg QP:17.08 size: 76965
x264 [info]: frame P:32418 Avg QP:18.68 size: 31817
x264 [info]: frame B:113965 Avg QP:20.49 size: 7716
==================================================================
Общее
Уникальный идентификатор : 173674478802887491779393859839128370527 (0x82A87CE8FEE84BC7944DB84F5BB5FD5F)
Полное имя : D:\Ф А Й Л Ы\Счастье - это... (2015).mkv
Формат : Matroska
Версия формата : Version 2
Размер файла : 2,12 Гбайт
Продолжительность : 1 ч. 38 м.
Общий поток : 3086 Кбит/сек
Дата кодирования : UTC 2017-04-18 13:40:54
Программа кодирования : mkvmerge v7.8.0 ('River Man') 32bit built on Apr 3 2015 12:11:22
Библиотека кодирования : libebml v1.3.1 + libmatroska v1.4.2
Видео
Идентификатор : 1
Формат : AVC
Формат/Информация : Advanced Video Codec
Профиль формата : High@L4.1
Параметр CABAC формата : Да
Параметр ReFrames формата : 12 кадров
Идентификатор кодека : V_MPEG4/ISO/AVC
Продолжительность : 1 ч. 38 м.
Битрейт : 2700 Кбит/сек
Ширина : 1024 пикселя
Высота : 428 пикселей
Соотношение сторон : 2,40:1
Режим частоты кадров : Постоянный
Частота кадров : 25,000 кадров/сек
Цветовое пространство : YUV
Субдискретизация насыщенности : 4:2:0
Битовая глубина : 8 бит
Тип развёртки : Прогрессивная
Бит/(Пиксели*Кадры) : 0.246
Размер потока : 1,81 Гбайт (86%)
Библиотека кодирования : x264 core 148 r2744kMod b97ae06
Настройки программы : cabac=1 / ref=12 / deblock=1:-2:-2 / analyse=0x3:0x133 / me=umh / subme=10 / psy=1 / fade_compensate=0.00 / psy_rd=1.02:0.07 / mixed_ref=1 / me_range=32 / chroma_me=1 / trellis=2 / 8x8dct=1 / cqm=0 / deadzone=21,11 / fast_pskip=0 / chroma_qp_offset=-3 / threads=3 / lookahead_threads=1 / sliced_threads=0 / nr=0 / decimate=0 / interlaced=0 / bluray_compat=0 / constrained_intra=0 / bframes=16 / b_pyramid=2 / b_adapt=2 / b_bias=0 / direct=3 / weightb=1 / open_gop=0 / weightp=2 / keyint=250 / keyint_min=25 / scenecut=40 / intra_refresh=0 / rc_lookahead=65 / rc=2pass / mbtree=1 / bitrate=2700 / ratetol=1.0 / qcomp=0.70 / qpmin=0 / qpmax=39 / qpstep=4 / cplxblur=20.0 / qblur=0.5 / ip_ratio=1.10 / aq=2:1.00
Язык : Russian
Default : Да
Forced : Нет
Цветовой диапазон : Limited
Основные цвета : BT.709
Характеристики трансфера : BT.709
Коэффициенты матрицы : BT.709
Аудио
Идентификатор : 2
Формат : AC-3
Формат/Информация : Audio Coding 3
Параметр Endianness формата : Big
Идентификатор кодека : A_AC3
Продолжительность : 1 ч. 38 м.
Вид битрейта : Постоянный
Битрейт : 384 Кбит/сек
Каналы : 6 каналов
Расположение каналов : Front: L C R, Side: L R, LFE
Частота : 48,0 КГц
Частота кадров : 31,250 кадров/сек (1536 spf)
Битовая глубина : 16 бит
Метод сжатия : С потерями
Размер потока : 270 Мбайт (12%)
Язык : Russian
ServiceKind/String : Complete Main
Default : Да
Forced : Нет

Скриншот c названием фильма

Скриншоты

[cybertorrent.ru].t281.torrent 
Торрент: Зарегистрирован [ 2018-02-15 15:34 ] · 9044AFCF87B01D7431CD61496AB8D170C63D4D9E

Скачать .torrent

Скачать

11 KB

Статус: проверено
Скачан: 0 раз
Размер: 2,12 GB
Профиль [ЛС]
Показать сообщения:    

Текущее время: 23-Май 16:50

Часовой пояс: UTC ± 0



Вы не можете начинать темы
Вы не можете отвечать на сообщения
Вы не можете редактировать свои сообщения
Вы не можете удалять свои сообщения
Вы не можете голосовать в опросах
Вы не можете прикреплять файлы к сообщениям
Вы можете скачивать файлы