Статистика раздачи
Размер:  718 MB   |    Зарегистрирован:  5 месяцев 4 дня   |    Скачан:  0 раз

Полного источника не было: Никогда

 
   
 
 

irkutsk ®

Пол:
Не указан
Стаж:
5 месяцев 6 дней
Сообщений:
620

Южный Парк / South Park
Страна: США
Жанр: Ситком, сатира, мультсериал
Продолжительность: 00:21:45
Год выпуска: 2016
Перевод: Субтитры
Русские субтитры: есть
Режиссёр: Мэтт Стоун / Matt Stone, Трей Паркер / Tray Parker
Роли озвучивали: Мэтт Стоун, Трей Паркер, Айзек Хейз, Мэри Бергман, Элиза Шнайдер, Мона Маршалл, Эйприл Стюарт, Джон Хэнсен, Дженнифер Хауэлл, Эдриен Бирд
Описание: Cтранноватые истории из жизни нескольких третьеклашек из маленького городка Саус Парк в штате Колорадо. Это комедия с элементами гротеска, фарса, пародии, обильно сдобренная музыкой и той самой плохо определяемой словами чертовщиной…
Список серий:
1. "Member Berries" / "Помне-ягоды"
2. "Skank Hunt" / "Охота на уродин"
Качество: HDTVRip 720p
Формат: MKV
Видео: AVC, 1280x720 (16:9), 23.976 fps, 2071 kbps
Аудио: [English, Original] AC-3, 48000 Hz, 6 ch, 384 kbps
Субтитры: 1. Russian, UTF-8, Softsub (.str)
2. English, UTF-8, Softsub (.str)
Семпл: Яндекс.Диск
Ссылка на предыдущие и альтернативные раздачи

Подробные технические данные

1 серия

General
Unique ID : 176094608636903317193947398142081753241 (0x847A9685FB475D19AF7107945D29E099)
Complete name : C:\пурожекту\South Park S20\South Park Season 20\South.Park.S02E01.Release.mkv
Format : Matroska
Format version : Version 4 / Version 2
File size : 383 MiB
Duration : 21 min 45 s
Overall bit rate : 2 457 kb/s
Movie name : South.Park.S02E01.Released
Encoded date : UTC 2016-09-16 12:41:17
Writing application : mkvmerge v9.4.2 ('So High') 64bit
Writing library : libebml v1.3.4 + libmatroska v1.4.5
Video
ID : 2
Format : AVC
Format/Info : Advanced Video Codec
Format profile : High@L4.1
Format settings, CABAC : Yes
Format settings, ReFrames : 5 frames
Codec ID : V_MPEG4/ISO/AVC
Duration : 21 min 45 s
Bit rate : 2 071 kb/s
Width : 1 280 pixels
Height : 720 pixels
Display aspect ratio : 16:9
Frame rate mode : Constant
Frame rate : 23.976 (24000/1001) FPS
Color space : YUV
Chroma subsampling : 4:2:0
Bit depth : 8 bits
Scan type : Progressive
Bits/(Pixel*Frame) : 0.094
Stream size : 322 MiB (84%)
Writing library : x264 core 148 r2705 3f5ed56
Encoding settings : cabac=1 / ref=5 / deblock=1:0:0 / analyse=0x3:0x113 / me=umh / subme=8 / psy=1 / psy_rd=1.00:0.00 / mixed_ref=1 / me_range=16 / chroma_me=1 / trellis=1 / 8x8dct=1 / cqm=0 / deadzone=21,11 / fast_pskip=1 / chroma_qp_offset=-2 / threads=18 / lookahead_threads=3 / sliced_threads=0 / nr=0 / decimate=1 / interlaced=0 / bluray_compat=0 / constrained_intra=0 / bframes=3 / b_pyramid=2 / b_adapt=2 / b_bias=0 / direct=3 / weightb=1 / open_gop=0 / weightp=2 / keyint=250 / keyint_min=23 / scenecut=40 / intra_refresh=0 / rc_lookahead=50 / rc=crf / mbtree=1 / crf=18.0 / qcomp=0.60 / qpmin=0 / qpmax=69 / qpstep=4 / ip_ratio=1.40 / aq=1:1.00
Default : Yes
Forced : No
Color range : Limited
Matrix coefficients : BT.709
Audio
ID : 3
Format : AC-3
Format/Info : Audio Coding 3
Mode extension : CM (complete main)
Format settings, Endianness : Big
Codec ID : A_AC3
Duration : 21 min 45 s
Bit rate mode : Constant
Bit rate : 384 kb/s
Channel(s) : 6 channels
Channel positions : Front: L C R, Side: L R, LFE
Sampling rate : 48.0 kHz
Frame rate : 31.250 FPS (1536 spf)
Compression mode : Lossy
Stream size : 59.8 MiB (16%)
Title : Оригинал
Language : English
Default : Yes
Forced : No
Text #1
ID : 1
Format : UTF-8
Codec ID : S_TEXT/UTF8
Codec ID/Info : UTF-8 Plain Text
Duration : 21 min 40 s
Bit rate : 118 b/s
Count of elements : 516
Stream size : 18.8 KiB (0%)
Title : Англиский
Language : English
Default : No
Forced : No
Text #2
ID : 4
Format : UTF-8
Codec ID : S_TEXT/UTF8
Codec ID/Info : UTF-8 Plain Text
Duration : 21 min 40 s
Bit rate : 205 b/s
Count of elements : 516
Stream size : 32.6 KiB (0%)
Title : Русский
Language : Russian
Default : Yes
Forced : No

2 серия

General
Unique ID : 212156857835661186786726790385464917838 (0x9F9BECAEBCC3D467BA7C5A1E9E163F4E)
Complete name : C:\пурожекту\South Park S20\South Park Season 20\South.Park.S20E02.Release.mkv
Format : Matroska
Format version : Version 4 / Version 2
File size : 335 MiB
Duration : 21 min 46 s
Overall bit rate : 2 154 kb/s
Movie name : South.Park.S20E02.Released
Encoded date : UTC 2016-09-23 03:22:05
Writing application : mkvmerge v9.4.2 ('So High') 64bit
Writing library : libebml v1.3.4 + libmatroska v1.4.5
Video
ID : 3
Format : AVC
Format/Info : Advanced Video Codec
Format profile : High@L4.1
Format settings, CABAC : Yes
Format settings, ReFrames : 5 frames
Codec ID : V_MPEG4/ISO/AVC
Duration : 21 min 46 s
Bit rate : 1 767 kb/s
Width : 1 280 pixels
Height : 720 pixels
Display aspect ratio : 16:9
Frame rate mode : Constant
Frame rate : 23.976 (24000/1001) FPS
Color space : YUV
Chroma subsampling : 4:2:0
Bit depth : 8 bits
Scan type : Progressive
Bits/(Pixel*Frame) : 0.080
Stream size : 275 MiB (82%)
Writing library : x264 core 148 r2705 3f5ed56
Encoding settings : cabac=1 / ref=5 / deblock=1:0:0 / analyse=0x3:0x113 / me=umh / subme=8 / psy=1 / psy_rd=1.00:0.00 / mixed_ref=1 / me_range=16 / chroma_me=1 / trellis=1 / 8x8dct=1 / cqm=0 / deadzone=21,11 / fast_pskip=1 / chroma_qp_offset=-2 / threads=22 / lookahead_threads=3 / sliced_threads=0 / nr=0 / decimate=1 / interlaced=0 / bluray_compat=0 / constrained_intra=0 / bframes=3 / b_pyramid=2 / b_adapt=2 / b_bias=0 / direct=3 / weightb=1 / open_gop=0 / weightp=2 / keyint=250 / keyint_min=23 / scenecut=40 / intra_refresh=0 / rc_lookahead=50 / rc=crf / mbtree=1 / crf=18.0 / qcomp=0.60 / qpmin=0 / qpmax=69 / qpstep=4 / ip_ratio=1.40 / aq=1:1.00
Default : Yes
Forced : No
Color range : Limited
Matrix coefficients : BT.709
Audio
ID : 4
Format : AC-3
Format/Info : Audio Coding 3
Mode extension : CM (complete main)
Format settings, Endianness : Big
Codec ID : A_AC3
Duration : 21 min 46 s
Bit rate mode : Constant
Bit rate : 384 kb/s
Channel(s) : 6 channels
Channel positions : Front: L C R, Side: L R, LFE
Sampling rate : 48.0 kHz
Frame rate : 31.250 FPS (1536 spf)
Compression mode : Lossy
Stream size : 59.8 MiB (18%)
Title : Оригинал
Default : Yes
Forced : No
Text #1
ID : 1
Format : UTF-8
Codec ID : S_TEXT/UTF8
Codec ID/Info : UTF-8 Plain Text
Duration : 21 min 34 s
Bit rate : 87 b/s
Count of elements : 410
Stream size : 13.9 KiB (0%)
Title : Аглийский
Language : English
Default : No
Forced : No
Text #2
ID : 2
Format : UTF-8
Codec ID : S_TEXT/UTF8
Codec ID/Info : UTF-8 Plain Text
Duration : 21 min 34 s
Bit rate : 151 b/s
Count of elements : 411
Stream size : 24.0 KiB (0%)
Title : Русский
Language : Russian
Default : Yes
Forced : No

Скриншоты

1 серия

2 серия

Раздача обновлена! Добавлена вторая серия.
[cybertorrent.ru].t2810.torrent 
Торрент: Зарегистрирован [ 2018-02-16 14:35 ] · DBD15C6C4F53ABC42AC315987F43BA428A53AF6D

Скачать .torrent

Скачать

57 KB

Статус: проверено
Скачан: 0 раз
Размер: 718 MB
Профиль [ЛС]
Показать сообщения:    

Текущее время: 21-Июл 11:31

Часовой пояс: UTC ± 0



Вы не можете начинать темы
Вы не можете отвечать на сообщения
Вы не можете редактировать свои сообщения
Вы не можете удалять свои сообщения
Вы не можете голосовать в опросах
Вы не можете прикреплять файлы к сообщениям
Вы можете скачивать файлы