Статистика раздачи
Размер:  6,36 GB   |    Зарегистрирован:  5 месяцев 6 дней   |    Скачан:  0 раз

Полного источника не было: Никогда

 
   
 
 

irkutsk ®

Пол:
Не указан
Стаж:
5 месяцев 8 дней
Сообщений:
620

Южный Парк / South Park
Страна: США
Жанр: комедия, сатира, мультсериал
Продолжительность: ~00:20:00
Год выпуска: 2016
Перевод 1: Профессиональный двухголосый закадровый (Paramount Comedy)
Перевод 2: Профессиональный двухголосый закадровый (Кубик в кубе)
Перевод 3: Профессиональный многоголосый закадровый (Jaskier)
Перевод 4: Профессиональный многоголосый закадровый (Coldfilm)
Перевод 5: Профессиональный многоголосый закадровый (IdeaFilm)
Перевод 6: Одноголосый закадровый (L0cDoG)
Перевод 7: Одноголосый закадровый (RedRussian1337)
Перевод 8: Любительский двухголосый закадровый (Sunshine Studio) (с 7-й серии)
Русские субтитры: Stevvie
Английские субтитры: Addic7ed (обычная и Hearing Impaired версии)
Режиссёр: Мэтт Стоун, Трей Паркер / Matt Stone, Trey Parker
Роли озвучивали: Мэт Стоун, Трэй Паркер, Эйприл Стюарт, Мона Маршалл, Эдриен Бирд, Вернон Четмэн, Илана Коон, Лиза Донован, Роберт Эрнст, Кэти Фэрис, Хитер Дженкинс и др.
Описание: Южный Парк / South Park — американский мультсериал, созданный Мэттом Стоуном и Треем Паркером. Иногда название переводится также как «Саут-Парк» или «Саус-Парк». Выпускается кабельным телеканалом Comedy Central с 1997 года. Основу сюжета составляют приключения четырёх мальчиков и их друзей, живущих в маленьком городке Саут-Парк, штат Колорадо. Сериал высмеивает недостатки американской культуры и текущие мировые события, а также подвергает критике множество глубоких убеждений и табу посредством пародии и чёрного юмора. «Южный Парк» выходит поздно вечером и позиционируется как мультфильм для взрослых.
Список серий:
01. "Member Berries" / "Ягоды поминики"
02. "Skank Hunt" / "Шлюхогон"
03. "The Damned" / "Проклятые"
04. "Wieners Out" / "Члены наголо"
05. “Douche and a Danish" / "Клизма и датчане"
06. "Fort Collins" / "Форт-Коллинс"
07. "Oh, Jeez" / "О Боже!" "The Very First Gentleman"
08. "Members Only" / "Только для участников"
09. "Not Funny" / "Не смешная"
10. "The End of Serialization as We Know It" / "Покончим с последовательностью"
Семпл: e01, e02, e03, e04, e05, e06, e07, e08, e09, e10
Ссылка на предыдущие и альтернативные раздачи.
Качество: HDTVRip 720p
Формат: MKV
Видео: AVC, 1280*720, 23.976 fps, 2 713 Kbps
Аудио 1: AC-3, 48.0 KHz, 2 ch, 192 kbps [Русский, Paramount Comedy]
Аудио 2: AC-3, 48.0 KHz, 2 ch, 192 Kbps [Русский, Кубик в кубе]] // Релиз: & & messafan (звук)
Аудио 3: AC-3, 48.0 KHz, 6 ch, 384 Kbps [Русский, Jaskier]
Аудио 4: AAC, 48.0 KHz, 2 ch, 46.875 fps [Русский, Coldfilm]
Аудио 5: AC-3, 48.0 KHz, 6 ch, 384 Kbps [Русский, IdeaFilm]
Аудио 6: AC-3, 48.0 KHz, 2 ch, 192 kbps [Русский, L0cDoG]
Аудио 7: AAC, 48.0 KHz, 2 ch, 150 kbps [Русский, RedRussian1337]
Аудио 8: AC-3, 48.0 KHz, 2 ch, 192 kbps [Русский, Sunshine Studio]
Аудио 9: AC-3, 48.0 KHz, 6 ch, 384 Kbps [Английский]

Подробные технические данные

General
Unique ID : 282898454553261957173401649910120565440 (0xD4D442AF1CB8163D978576884081CAC0)
Complete name : /home/truf/torrents/South Park Season 20 Rus HDTVRip 720p/South.Park.s20e10.The_End_of_Serialization_as_We_Know_It.rus.eng.HDTVRip.mkv
Format : Matroska
Format version : Version 4 / Version 2
File size : 664 MiB
Duration : 21 min 46 s
Overall bit rate : 4 263 kb/s
Movie name : South Park s20e10 The End of Serialization as We Know It
Encoded date : UTC 2016-12-24 10:57:17
Writing application : mkvmerge v9.6.0 ('Slave To Your Mind') 64bit
Writing library : libebml v1.3.4 + libmatroska v1.4.5
Video
ID : 1
Format : AVC
Format/Info : Advanced Video Codec
Format profile : High@L4.1
Format settings, CABAC : Yes
Format settings, ReFrames : 5 frames
Codec ID : V_MPEG4/ISO/AVC
Duration : 21 min 46 s
Bit rate : 1 831 kb/s
Width : 1 280 pixels
Height : 720 pixels
Display aspect ratio : 16:9
Frame rate mode : Constant
Frame rate : 23.976 (24000/1001) FPS
Color space : YUV
Chroma subsampling : 4:2:0
Bit depth : 8 bits
Scan type : Progressive
Bits/(Pixel*Frame) : 0.083
Stream size : 285 MiB (43%)
Title : ENG
Writing library : x264 core 148 r2721 72d53ab
Encoding settings : cabac=1 / ref=5 / deblock=1:0:0 / analyse=0x3:0x113 / me=hex / subme=8 / psy=1 / psy_rd=1.00:0.00 / mixed_ref=1 / me_range=16 / chroma_me=1 / trellis=2 / 8x8dct=1 / cqm=0 / deadzone=21,11 / fast_pskip=1 / chroma_qp_offset=-2 / threads=22 / lookahead_threads=3 / sliced_threads=0 / nr=0 / decimate=1 / interlaced=0 / bluray_compat=0 / constrained_intra=0 / bframes=3 / b_pyramid=2 / b_adapt=1 / b_bias=0 / direct=3 / weightb=1 / open_gop=0 / weightp=2 / keyint=250 / keyint_min=23 / scenecut=40 / intra_refresh=0 / rc_lookahead=50 / rc=crf / mbtree=1 / crf=18.0 / qcomp=0.60 / qpmin=0 / qpmax=69 / qpstep=4 / ip_ratio=1.40 / aq=1:1.00
Language : English
Default : Yes
Forced : No
Color range : Limited
Matrix coefficients : BT.709
Audio #1
ID : 2
Format : AC-3
Format/Info : Audio Coding 3
Mode extension : CM (complete main)
Format settings, Endianness : Big
Codec ID : A_AC3
Duration : 21 min 46 s
Bit rate mode : Constant
Bit rate : 192 kb/s
Channel(s) : 2 channels
Channel positions : Front: L R
Sampling rate : 48.0 kHz
Frame rate : 31.250 FPS (1536 spf)
Compression mode : Lossy
Stream size : 29.9 MiB (5%)
Title : RUS (Paramount Comedy)
Language : Russian
Default : Yes
Forced : No
Audio #2
ID : 3
Format : AC-3
Format/Info : Audio Coding 3
Mode extension : CM (complete main)
Format settings, Endianness : Big
Codec ID : A_AC3
Duration : 21 min 46 s
Bit rate mode : Constant
Bit rate : 192 kb/s
Channel(s) : 2 channels
Channel positions : Front: L R
Sampling rate : 48.0 kHz
Frame rate : 31.250 FPS (1536 spf)
Compression mode : Lossy
Stream size : 29.9 MiB (5%)
Title : RUS (Кубик в кубе)
Language : Russian
Default : No
Forced : No
Audio #3
ID : 4
Format : AC-3
Format/Info : Audio Coding 3
Mode extension : CM (complete main)
Format settings, Endianness : Big
Codec ID : A_AC3
Duration : 21 min 45 s
Bit rate mode : Constant
Bit rate : 384 kb/s
Channel(s) : 6 channels
Channel positions : Front: L C R, Side: L R, LFE
Sampling rate : 48.0 kHz
Frame rate : 31.250 FPS (1536 spf)
Compression mode : Lossy
Stream size : 59.8 MiB (9%)
Title : RUS (Jaskier)
Language : Russian
Default : No
Forced : No
Audio #4
ID : 5
Format : AAC
Format/Info : Advanced Audio Codec
Format profile : LC
Codec ID : A_AAC
Duration : 21 min 46 s
Bit rate : 384 kb/s
Channel(s) : 2 channels
Channel positions : Front: L R
Sampling rate : 48.0 kHz
Frame rate : 46.875 FPS (1024 spf)
Compression mode : Lossy
Stream size : 58.9 MiB (9%)
Title : RUS (Coldfilm)
Language : Russian
Default : No
Forced : No
Audio #5
ID : 6
Format : AC-3
Format/Info : Audio Coding 3
Mode extension : CM (complete main)
Format settings, Endianness : Big
Codec ID : A_AC3
Duration : 21 min 46 s
Bit rate mode : Constant
Bit rate : 384 kb/s
Channel(s) : 6 channels
Channel positions : Front: L C R, Side: L R, LFE
Sampling rate : 48.0 kHz
Frame rate : 31.250 FPS (1536 spf)
Compression mode : Lossy
Stream size : 59.8 MiB (9%)
Title : RUS (IdeaFilm)
Language : Russian
Default : No
Forced : No
Audio #6
ID : 7
Format : AC-3
Format/Info : Audio Coding 3
Mode extension : CM (complete main)
Format settings, Endianness : Big
Codec ID : A_AC3
Duration : 21 min 46 s
Bit rate mode : Constant
Bit rate : 192 kb/s
Channel(s) : 2 channels
Channel positions : Front: L R
Sampling rate : 48.0 kHz
Frame rate : 31.250 FPS (1536 spf)
Compression mode : Lossy
Stream size : 29.9 MiB (5%)
Title : RUS (Sunshine Studio)
Default : No
Forced : No
Audio #7
ID : 8
Format : AC-3
Format/Info : Audio Coding 3
Mode extension : CM (complete main)
Format settings, Endianness : Big
Codec ID : A_AC3
Duration : 21 min 46 s
Bit rate mode : Constant
Bit rate : 192 kb/s
Channel(s) : 2 channels
Channel positions : Front: L R
Sampling rate : 48.0 kHz
Frame rate : 31.250 FPS (1536 spf)
Compression mode : Lossy
Stream size : 29.9 MiB (5%)
Title : RUS (L0cDoG)
Language : Russian
Default : No
Forced : No
Audio #8
ID : 9
Format : AAC
Format/Info : Advanced Audio Codec
Format profile : LC
Codec ID : A_AAC
Duration : 21 min 46 s
Bit rate : 128 kb/s
Channel(s) : 2 channels
Channel positions : Front: L R
Sampling rate : 48.0 kHz
Frame rate : 46.875 FPS (1024 spf)
Compression mode : Lossy
Stream size : 19.9 MiB (3%)
Title : RUS (RedRussian1337)
Language : Russian
Default : No
Forced : No
Audio #9
ID : 10
Format : AC-3
Format/Info : Audio Coding 3
Mode extension : CM (complete main)
Format settings, Endianness : Big
Codec ID : A_AC3
Duration : 21 min 46 s
Bit rate mode : Constant
Bit rate : 384 kb/s
Channel(s) : 6 channels
Channel positions : Front: L C R, Side: L R, LFE
Sampling rate : 48.0 kHz
Frame rate : 31.250 FPS (1536 spf)
Compression mode : Lossy
Stream size : 59.8 MiB (9%)
Title : ENG
Language : English
Default : No
Forced : No
Text #1
ID : 11
Format : UTF-8
Codec ID : S_TEXT/UTF8
Codec ID/Info : UTF-8 Plain Text
Duration : 21 min 6 s
Bit rate : 148 b/s
Count of elements : 429
Stream size : 23.0 KiB (0%)
Title : RUS (Stevvie)
Language : Russian
Default : No
Forced : No
Text #2
ID : 12
Format : UTF-8
Codec ID : S_TEXT/UTF8
Codec ID/Info : UTF-8 Plain Text
Duration : 21 min 38 s
Bit rate : 99 b/s
Count of elements : 477
Stream size : 15.7 KiB (0%)
Title : ENG
Language : English
Default : No
Forced : No
Text #3
ID : 13
Format : UTF-8
Codec ID : S_TEXT/UTF8
Codec ID/Info : UTF-8 Plain Text
Duration : 21 min 38 s
Bit rate : 104 b/s
Count of elements : 518
Stream size : 16.5 KiB (0%)
Title : ENG (Hearing Impaired)
Language : English
Default : No
Forced : No
Результаты MediaInfo на все серии.

Скриншоты

s20e01. Member Berries

s20e02. Skank Hunt

s20e03. The Damned

s20e04. Weiners Out

s20e05. Douche and a Danish

s20e06. Fort Collins

s20e07. Oh, Jeez

s20e08. Members Only

s20e09. Not Funny


s20e10. The End of Serialization as We Know It


[cybertorrent.ru].t2811.torrent 
Торрент: Зарегистрирован [ 2018-02-16 14:35 ] · 340E53787731D34914864C65502D1B3626614362

Скачать .torrent

Скачать

256 KB

Статус: проверено
Скачан: 0 раз
Размер: 6,36 GB
Профиль [ЛС]
Показать сообщения:    

Текущее время: 23-Июл 13:46

Часовой пояс: UTC ± 0



Вы не можете начинать темы
Вы не можете отвечать на сообщения
Вы не можете редактировать свои сообщения
Вы не можете удалять свои сообщения
Вы не можете голосовать в опросах
Вы не можете прикреплять файлы к сообщениям
Вы можете скачивать файлы