Статистика раздачи
Размер:  16,63 GB   |    Зарегистрирован:  5 месяцев 5 дней   |    Скачан:  0 раз

Полного источника не было: Никогда

 
   
 
 

deltacatsplus ®

Пол:
Не указан
Стаж:
5 месяцев 6 дней
Сообщений:
202

Точь в точь 4 сезон 01 - 04 выпуск
Дата/Год выпуска: 2016
Страна: Россия
Жанр: Тв-шоу
Продолжительность: 02:23:00
Перевод: Не требуется
Телеканал: Первый канал HD
Описание: В эфире стартует новый сезон одного из самых популярных в стране музыкально-развлекательных телепроектов! Зрителей вновь ждут невероятные сценические перевоплощения и самые известные хиты! В этот раз за звание победителя проекта поспорят те, кому однажды уже приходилось подниматься на сцену "Точь-в-Точь". Участники - Никита Пресняков, Родион Газманов, Ирина Дубцова, Азиза, Аглая Шиловская, Лада Дэнс, Глеб Матвейчук, Наталья Подольская, Евгений Дятлов, Дмитрий Колдун, Ксана Сергиенко и Елена Максимова. Новый сезон "Точь-в-Точь", пожалуй, самый разноплановый - участники проекта создали более сотни почти аутентичных образов великих исполнителей прошлых лет и современных популярных музыкантов. Создатели шоу не обошли вниманием ни один музыкальный жанр, будь то классические партии или тяжелый рок, целая программа посвящена киношлягерам в исполнении знаменитых советских и российских актеров, в других выпусках участники проводят музыкальные дуэли (когда двое артистов выступают в образе одного исполнителя). Каждый номер шоу - полное погружение в создаваемый образ: артист воспроизводит не только голос и хореографию, но также внешний облик и манеру держаться на сцене. Нередко участникам "Точь-в-Точь" приходится "менять пол". Больше всего таких выступлений у Азизы, Лады Дэнс и Ксаны Сергиенко (по 4). Тренд "перевоплощения" подхватят все члены жюри, третейский судья и ведущий, а также каждый из приглашенных гостей (чаще всего в этом будет замечен Максим Галкин, уже принимавший участие в "Точь-в-Точь").
Жюри: Геннадий Хазанов, Любовь Казарновская, Леонид Ярмольник, Михаил Боярский.
Участники: Никита Пресняков, Родион Газманов, Ирина Дубцова, Азиза, Аглая Шиловская, Лада Дэнс, Глеб Матвейчук, Наталья Подольская, Евгений Дятлов, Дмитрий Колдун, Ксана Сергиенко и Елена Максимова.
Качество: HDTV 720p
Контейнер: mkv
Видео кодек: H.264
Аудио кодек: AC3
Видео: H264; 1280x720 (16:9); 25.000 fps; ~3 765 Kbps
Аудио : AC3, 2 channels stereo , 48000Hz, 384 Кбит/сек
За исходник спасибо olegka7373

01 выпуск от 2016.09.19

01. Азиза. Кола Бельды – «Увезу тебя я в тундру»
02. Родион Газманов. Сергей Лазарев – «В самое сердце»
03. Наталья Подольская. Celine Dion – «All By Myself»
04. Лада Дэнс. Клавдия Шульженко – «Давай закурим»
05. Никита Пресняков. David Bowie – «Space Oddity»
06. Ксана Сергиенко. Надежда Кадышева – «Я не колдунья»
07. Дмитрий Колдун. «Король и Шут» – «Ели мясо мужики»
08. Елена Максимова. Christina Aguilera – «Candyman»
09. Аглая Шиловская. Марина Хлебникова – «Чашка кофею»
10. Евгений Дятлов. U2 – «Where the Streets Have No Name»
11. Глеб Матвейчук. Анна Нетребко – «Вальс Джульетты»
12. Ирина Дубцова. Adele – «Hello»
13. Максим Галкин. Александр Градский – «Как молоды мы были»

02 выпуск от 2016.09.25

01. Азиза. Cher – «Strong Enough»
02. Ирина Дубцова. Cher – «The Shoop Shoop Song»
03. Дмитрий Колдун. Александр Серов – «Как быть?»
04. Евгений Дятлов. Александр Серов – «Я люблю тебя до слез»
05. Елена Максимова. Жанна Агузарова – «Ты, только ты»
06. Родион Газманов. Жанна Агузарова – «Верю я»
07. Наталья Подольская и Глеб Матвейчук. Дива Плавалагуна – «Ария» (из к/ф «Пятый элемент»)
08. Аглая Шиловская. Алла Пугачева – «Старинные часы»
09. Лада Дэнс. Алла Пугачева – «Настоящий полковник»
10. Никита Пресняков. Фредди Меркьюри – «Love of My Life»
11. Ксана Сергиенко. Фредди Меркьюри – «I Want to Break Free»
12. Витас. AC/DC – «Thunderstruck»

03 выпуск от 2016.10.09

01. Александр Олешко и члены жюри – «Мама, мама, что я буду делать»
02. Ирина Дубцова. Ирина Муравьева – «Позвони мне, позвони»
03. Лада Дэнс. Мэрилин Монро – «Diamonds Are a Girl’s Best Friend»
04. Родион Газманов. Олег Даль – «Песня о золотом купидоне»
05. Елена Максимова. Людмила Гурченко – «Песенка о несостоявшихся надеждах»
06. Наталья Подольская. Джессика Рэббит – «Why Don't You Do Right?»
07. Дмитрий Колдун. Вениамин Смехов – «Баллада Атоса»
08. Никита Пресняков. Юэн Макгрегор – «Your Song»
09. Азиза. Лариса Гузеева – «А напоследок я скажу»
10. Аглая Шиловская. Кэтрин Зета‐Джонс – «All That Jazz»
11. Евгений Дятлов. Александр Калягин – «Любовь и бедность»
12. Ксана Сергиенко и Леонид Серебренников. Екатерина Васильева и Юрий Соломин — «Ах, сударыня»
13. Глеб Матвейчук. Джерард Батлер и Эмми Россум — «The Phantom of the Opera»
14. Максим Галкин. Владимир Толоконников — «Песня Шарикова»

04 выпуск от 2016.10.16

01. Ирина Дубцова. Екатерина Шаврина — «Гляжу в озера синие»
02. Ксана Сергиенко. Донна Саммер — «Love to Love You Baby»
03. Аглая Шиловская. IOWA — «Простая песня»
04. Никита Пресняков. System of a Down — «Chop Suey!»
05. Евгений Дятлов. Ив Монтан — «A Paris»
06. Елена Максимова. Бьянка — «Были танцы»
07. Дмитрий Колдун. Александр Маршал — «Ливень»
08. Лада Дэнс. Кайли Миноуг — «In Your Eyes»
09. Глеб Матвейчук. Литтл Ричард — «Good Golly Miss Molly»
10. Наталья Подольская. Тамара Миансарова — «Я тебя подожду»
11. Родион Газманов. 5'nizza — «Солдат»
12. Азиза. Ширли Бэсси — «Love Story»
13. Игорь Николаев. Владимир Мулявин — «Рушники»
14. Глеб Матвейчук и все участники — «Good Golly Miss Molly»

MediaInfo

General
Unique ID : 243675421498537274775699879923263728918 (0xB7522DD955CD45968C272F78538BED16)
Complete name : J:\Точь в точь 4 сезон 2016 HDTVRip 720p\Точь-в-точь. 4 сезон. Выпуск от 2016.09.18 HDTVRip 720p_kuzmichm2196.mkv
Format : Matroska
Format version : Version 2
File size : 4.16 GiB
Duration : 2 h 23 min
Overall bit rate : 4 149 kb/s
Encoded date : UTC 2016-09-19 06:26:57
Writing application : mkvmerge v7.8.0 ('River Man') 32bit built on Apr 3 2015 12:11:22
Writing library : libebml v1.3.1 + libmatroska v1.4.2
Video
ID : 1
Format : AVC
Format/Info : Advanced Video Codec
Format profile : High@L4.1
Format settings, CABAC : Yes
Format settings, ReFrames : 8 frames
Codec ID : V_MPEG4/ISO/AVC
Duration : 2 h 23 min
Bit rate : 3 765 kb/s
Width : 1 280 pixels
Height : 720 pixels
Display aspect ratio : 16:9
Frame rate mode : Constant
Frame rate : 25.000 FPS
Color space : YUV
Chroma subsampling : 4:2:0
Bit depth : 8 bits
Scan type : Progressive
Bits/(Pixel*Frame) : 0.163
Stream size : 3.69 GiB (89%)
Writing library : x264 core 146 r2538 121396c
Encoding settings : cabac=1 / ref=8 / deblock=1:-1:-1 / analyse=0x3:0x113 / me=umh / subme=7 / psy=1 / psy_rd=1.00:0.20 / mixed_ref=1 / me_range=16 / chroma_me=1 / trellis=2 / 8x8dct=1 / cqm=0 / deadzone=21,11 / fast_pskip=0 / chroma_qp_offset=-3 / threads=6 / lookahead_threads=1 / sliced_threads=0 / nr=0 / decimate=0 / interlaced=0 / bluray_compat=0 / constrained_intra=0 / bframes=3 / b_pyramid=2 / b_adapt=2 / b_bias=0 / direct=3 / weightb=1 / open_gop=0 / weightp=2 / keyint=250 / keyint_min=25 / scenecut=40 / intra_refresh=0 / rc_lookahead=50 / rc=2pass / mbtree=1 / bitrate=3765 / ratetol=1.0 / qcomp=0.60 / qpmin=0 / qpmax=69 / qpstep=4 / cplxblur=20.0 / qblur=0.5 / vbv_maxrate=14000 / vbv_bufsize=14000 / nal_hrd=none / filler=0 / ip_ratio=1.40 / aq=1:1.00
Default : Yes
Forced : No
Audio
ID : 2
Format : AC-3
Format/Info : Audio Coding 3
Mode extension : CM (complete main)
Format settings, Endianness : Big
Codec ID : A_AC3
Duration : 2 h 23 min
Bit rate mode : Constant
Bit rate : 384 kb/s
Channel(s) : 2 channels
Channel positions : Front: L R
Sampling rate : 48.0 kHz
Frame rate : 31.250 FPS (1536 spf)
Compression mode : Lossy
Stream size : 394 MiB (9%)
Default : Yes
Forced : No
General
Unique ID : 234087903398858900887531159233914601472 (0xB01BB0B60632131D9289C00A00A20000)
Complete name : J:\Точь в точь 4 сезон 2016 HDTVRip 720p\Точь-в-точь. 4 сезон. 02 выпуск от 2016.09.25 HDTVRip 720p_kuzmichm2196.mkv
Format : Matroska
Format version : Version 2
File size : 4.16 GiB
Duration : 2 h 21 min
Overall bit rate : 4 211 kb/s
Encoded date : UTC 2016-09-26 18:39:32
Writing application : mkvmerge v7.8.0 ('River Man') 32bit built on Apr 3 2015 12:11:22
Writing library : libebml v1.3.1 + libmatroska v1.4.2
Video
ID : 1
Format : AVC
Format/Info : Advanced Video Codec
Format profile : High@L4.1
Format settings, CABAC : Yes
Format settings, ReFrames : 8 frames
Codec ID : V_MPEG4/ISO/AVC
Duration : 2 h 21 min
Bit rate : 3 825 kb/s
Width : 1 280 pixels
Height : 720 pixels
Display aspect ratio : 16:9
Frame rate mode : Constant
Frame rate : 25.000 FPS
Color space : YUV
Chroma subsampling : 4:2:0
Bit depth : 8 bits
Scan type : Progressive
Bits/(Pixel*Frame) : 0.166
Stream size : 3.70 GiB (89%)
Writing library : x264 core 146 r2538 121396c
Encoding settings : cabac=1 / ref=8 / deblock=1:-1:-1 / analyse=0x3:0x113 / me=umh / subme=7 / psy=1 / psy_rd=1.00:0.20 / mixed_ref=1 / me_range=16 / chroma_me=1 / trellis=2 / 8x8dct=1 / cqm=0 / deadzone=21,11 / fast_pskip=0 / chroma_qp_offset=-3 / threads=6 / lookahead_threads=1 / sliced_threads=0 / nr=0 / decimate=0 / interlaced=0 / bluray_compat=0 / constrained_intra=0 / bframes=3 / b_pyramid=2 / b_adapt=2 / b_bias=0 / direct=3 / weightb=1 / open_gop=0 / weightp=2 / keyint=250 / keyint_min=25 / scenecut=40 / intra_refresh=0 / rc_lookahead=50 / rc=2pass / mbtree=1 / bitrate=3825 / ratetol=1.0 / qcomp=0.60 / qpmin=0 / qpmax=69 / qpstep=4 / cplxblur=20.0 / qblur=0.5 / vbv_maxrate=14000 / vbv_bufsize=14000 / nal_hrd=none / filler=0 / ip_ratio=1.40 / aq=1:1.00
Default : Yes
Forced : No
Audio
ID : 2
Format : AC-3
Format/Info : Audio Coding 3
Mode extension : CM (complete main)
Format settings, Endianness : Big
Codec ID : A_AC3
Duration : 2 h 21 min
Bit rate mode : Constant
Bit rate : 384 kb/s
Channel(s) : 2 channels
Channel positions : Front: L R
Sampling rate : 48.0 kHz
Frame rate : 31.250 FPS (1536 spf)
Compression mode : Lossy
Stream size : 388 MiB (9%)
Default : Yes
Forced : No

Скриншоты




[cybertorrent.ru].t2815.torrent 
Торрент: Зарегистрирован [ 2018-02-16 14:35 ] · B773AD38B16E202BF12AFB130A4D0E4816C997EB

Скачать .torrent

Скачать

43 KB

Статус: проверено
Скачан: 0 раз
Размер: 16,63 GB
Профиль [ЛС]
Показать сообщения:    

Текущее время: 21-Июл 23:23

Часовой пояс: UTC ± 0



Вы не можете начинать темы
Вы не можете отвечать на сообщения
Вы не можете редактировать свои сообщения
Вы не можете удалять свои сообщения
Вы не можете голосовать в опросах
Вы не можете прикреплять файлы к сообщениям
Вы можете скачивать файлы