Статистика раздачи
Размер:  6,81 GB   |    Зарегистрирован:  9 месяцев 3 дня   |    Скачан:  0 раз

Полного источника не было: Никогда

 
   
 
 

irkutsk ®

Пол:
Не указан
Стаж:
9 месяцев 5 дней
Сообщений:
175

-Южный Парк / South ParkСезон 20, Серии 01-10-- Год выпуска: 2016
Страна: США
Жанр: комедия, мультсериал
Продолжительность: ~ 00:20:00 x 10
Перевод : Профессиональный двухголосый закадровый [Paramount Comedy]
Субтитры: русские [Stevvie]; английские-Режиссёр: Мэтт Стоун, Трей Паркер-Описание: Южный Парк / South Park — американский мультсериал, созданный Мэттом Стоуном и Треем Паркером. Иногда название переводится также как «Саут-Парк» или «Саус-Парк». Выпускается кабельным телеканалом Comedy Central с 1997 года. Основу сюжета составляют приключения четырёх мальчиков и их друзей, живущих в маленьком городке Саут-Парк, штат Колорадо. Сериал высмеивает недостатки американской культуры и текущие мировые события, а также подвергает критике множество глубоких убеждений и табу посредством пародии и чёрного юмора. «Южный Парк» выходит поздно вечером и позиционируется как мультфильм для взрослых.-[ Все раздачи сериала ] | [ Сэмпл ]-Качество: WEB-DL 720p
Формат: MKV
Видео: 1280x718, 23.976 fps, AVC (H264), ~4 Mbps
Аудио 1: AC3, 48 kHz, 2 ch, 192 kbps [Русский, Paramount Comedy]
Аудио 2: AAC, 48 kHz, 2 ch, 160 kbps [Английский]
-

MI

General
Unique ID : 174426504757692717301359538501566814914 (0x833952A700C7DBA3BFF901EC4FAB5AC2)
Complete name : South.Park.S20E01.720p.WEB-DL.Rus.Eng.Sub.mkv
Format : Matroska
Format version : Version 4 / Version 2
File size : 701 MiB
Duration : 22 min
Overall bit rate : 4 417 kb/s
Encoded date : UTC 2016-09-22 20:35:40
Writing application : mkvmerge v7.7.0 ('Six Voices') 32bit built on Feb 28 2015 23:23:00
Writing library : libebml v1.3.1 + libmatroska v1.4.2
Video
ID : 1
Format : AVC
Format/Info : Advanced Video Codec
Format profile : High@L3.1
Format settings, CABAC : No
Format settings, ReFrames : 2 frames
Codec ID : V_MPEG4/ISO/AVC
Duration : 22 min
Bit rate : 4 069 kb/s
Width : 1 280 pixels
Height : 718 pixels
Display aspect ratio : 16:9
Frame rate mode : Constant
Frame rate : 23.976 (23976/1000) FPS
Color space : YUV
Chroma subsampling : 4:2:0
Bit depth : 8 bits
Scan type : Progressive
Bits/(Pixel*Frame) : 0.185
Stream size : 645 MiB (92%)
Title : South Park S20E01 Member Berries
Language : English
Default : Yes
Forced : No
Color range : Limited
Color primaries : BT.709
Transfer characteristics : BT.709
Matrix coefficients : BT.709
Audio #1
ID : 2
Format : AC-3
Format/Info : Audio Coding 3
Mode extension : CM (complete main)
Format settings, Endianness : Big
Codec ID : A_AC3
Duration : 22 min
Bit rate mode : Constant
Bit rate : 192 kb/s
Channel(s) : 2 channels
Channel positions : Front: L R
Sampling rate : 48.0 kHz
Frame rate : 31.250 FPS (1536 spf)
Compression mode : Lossy
Stream size : 30.5 MiB (4%)
Title : DVO Paramount Comedy
Language : Russian
Default : Yes
Forced : No
Audio #2
ID : 3
Format : AAC
Format/Info : Advanced Audio Codec
Format profile : LC
Codec ID : A_AAC
Duration : 22 min
Bit rate : 153 kb/s
Channel(s) : 2 channels
Channel positions : Front: L R
Sampling rate : 48.0 kHz
Frame rate : 46.875 FPS (1024 spf)
Compression mode : Lossy
Stream size : 24.2 MiB (3%)
Language : English
Default : No
Forced : No
Text #1
ID : 4
Format : UTF-8
Codec ID : S_TEXT/UTF8
Codec ID/Info : UTF-8 Plain Text
Duration : 21 min
Bit rate : 190 b/s
Count of elements : 437
Stream size : 29.6 KiB (0%)
Title : Stevvie
Language : Russian
Default : No
Forced : No
Text #2
ID : 5
Format : UTF-8
Codec ID : S_TEXT/UTF8
Codec ID/Info : UTF-8 Plain Text
Duration : 21 min
Bit rate : 124 b/s
Count of elements : 586
Stream size : 20.0 KiB (0%)
Language : English
Default : No
Forced : No
-
-

Внимание! Раздача ведётся путём добавления новых серий

Внимание! Раздача ведётся путём добавления новых серий; при каждом добавлении создётся новый торрент. Чтобы
начать докачку новой серии, пользователям необходимо сделать следующее:
  • Остановить скачивание.
  • Удалить старый торрент у себя из клиента (старые серии удалять не надо).
  • Скачать новый торрент и запустить его у себя в клиенте вместо старого, при этом указать клиенту путь в старую папку куда и
    должно происходить скачивание новых серий.
    Ваш клиент при этом должен произвести хеширование (проверку) старой папки (если не производит сам - помогите ему сделать
    это), и будет докачивать только те серии которых у вас ещё нет. Старые серии при этом не удаляются, а продолжают раздаваться!
    Eсли вы уже удалили старые серии, то предотвратить повторную закачку старых серий можно, отжав галочку в соответсвующих местах при
    запуске нового торрента. По возможности, желательно не удалять старые серии как можно дольше чтобы релизёр не столько продолжал
    раздавать старые серии, а смог сконцентрироваться на новых.
  • -Торрент обновлен. Добавлена 10-я серияВ 8-ой серии вырезали эпизод с президентом РФ. На этом куске перевод Jaskier, хотя сам перевод там практически не нужен-
    [cybertorrent.ru].t2820.torrent 
    Торрент: Зарегистрирован [ 2018-02-16 14:35 ] · AB13279EED99DC99F244B0E44B29A51A9EC73012

    Скачать .torrent

    Скачать

    35 KB

    Статус: проверено
    Скачан: 0 раз
    Размер: 6,81 GB
    Профиль [ЛС]
    Показать сообщения:    

    Текущее время: 20-Ноя 14:13

    Часовой пояс: UTC ± 0



    Вы не можете начинать темы
    Вы не можете отвечать на сообщения
    Вы не можете редактировать свои сообщения
    Вы не можете удалять свои сообщения
    Вы не можете голосовать в опросах
    Вы не можете прикреплять файлы к сообщениям
    Вы можете скачивать файлы
    Torrents24.ru открытый BitTorrent Torrents24.pl открытый BitTorrent CyberTorrent.ru открытый BitTorrent BtList.ru рейтинг BitTorrent трекеров Яндекс.Метрика