Статистика раздачи
Размер:  7,15 GB   |    Зарегистрирован:  8 месяцев 24 дня   |    Скачан:  0 раз

Полного источника не было: Никогда

 
   
 
 

Volga ®

Пол:
Не указан
Стаж:
8 месяцев 25 дней
Сообщений:
92

Le Plus Grand Cabaret du Monde - 24.09.16
Год выпуска: 2016
Страна: Франция
Жанр: шоу, кабаре, цирк
Продолжительность: 01:33:02
Описание:
Выпуск (от 24.09.16) телепередачи "Le Plus Grand Cabaret du Monde"
(телеканал France 2) в Full HD качестве. Оставлены только выступления артистов. Перевод не требуется.
Выступают:
01. Malevo - Troupe tambours et Boleadoras
02. Timothy Trust - Grande illusion, le carton
03. Desire of Flight - Sangles aériennes
04. Aaron Crow - La cire de bougies sur les yeux
05. Rosi Hoccheger - Le cheval dressé
06. Inmotion - Duo jonglage yoyo
07. Bernard Bilis - Magie close-up
08. Ding Yang - Magie colombes
09. Les Rossyann - Clowns musicaux
10. Cirque Le Roux - Troupe banquine
11. Tony Chapek
12. Cirka Cuba - Duo aérien "filles tenues par les cheveux"
13. Den Den - Magie manipulation et pliage
14. Bingo - Troupe charivari
15. Alain Choquette - Magie participative
16. Boris Nikishkin - Equilibre comique
17. Dani Lary - Grande illusion
18. Patrick Sebastien
Дополнительная информация: используемый видеоредактор - TMPGEnc MPEG Smart Renderer 4
Качество: HDTVRip
Контейнер: mkv
Видео кодек: H.264
Аудио кодек: AC3
Чаптеры: есть
Видео: H.264, 1920x1080, 25.000 fps, 10400 Kbps
Аудио: AC3, 2.0 ch, 48000 Hz, 384 Kbps

MediaInfo

Общее
Уникальный идентификатор : 118557293991283686189736167387992113257 (0x59314DE422E36D4596AD98E841134069)
Полное имя : E:\Le Plus Grand Cabaret du Monde 24.09.16.mkv
Формат : Matroska
Версия формата : Version 4 / Version 2
Размер файла : 7,15 Гбайт
Продолжительность : 1 ч. 33 м.
Общий поток : 11,0 Мбит/сек
Дата кодирования : UTC 2016-09-25 08:23:04
Программа кодирования : TMPGEnc MPEG Smart Renderer 4 Version 4.2.4.68
Библиотека кодирования : TMPGEnc MPEG Smart Renderer 4 Version 4.2.4.68
Видео
Идентификатор : 1
Формат : AVC
Формат/Информация : Advanced Video Codec
Профиль формата : High@L4
Параметр CABAC формата : Да
Параметр ReFrames формата : 4 кадра
Идентификатор кодека : V_MPEG4/ISO/AVC
Продолжительность : 1 ч. 33 м.
Битрейт : 10,4 Мбит/сек
Ширина : 1920 пикселей
Высота : 1080 пикселей
Соотношение сторон : 16:9
Режим частоты кадров : Постоянный
Частота кадров : 25,000 кадров/сек
Стандарт вещания : Component
Цветовое пространство : YUV
Субдискретизация насыщенности : 4:2:0
Битовая глубина : 8 бит
Тип развёртки : Чересстрочная
Порядок развёртки : Верхнее поле первое
Бит/(Пиксели*Кадры) : 0.201
Размер потока : 6,76 Гбайт (95%)
Default : Да
Forced : Нет
Цветовой диапазон : Limited
Основные цвета : BT.601 PAL
Характеристики трансфера : BT.470 System B, BT.470 System G
Коэффициенты матрицы : BT.601
Аудио
Идентификатор : 2
Формат : AC-3
Формат/Информация : Audio Coding 3
Расширение режима : CM (complete main)
Параметр Endianness формата : Big
Идентификатор кодека : A_AC3
Продолжительность : 1 ч. 33 м.
Вид битрейта : Постоянный
Битрейт : 384 Кбит/сек
Каналы : 2 канала
Расположение каналов : Front: L R
Частота : 48,0 КГц
Метод сжатия : С потерями
Размер потока : 256 Мбайт (3%)
Язык : French
Default : Да
Forced : Нет
Меню

Скриншоты


Предыдущий выпуск телепередачи: http://cybertorrent.ru/viewtopic.php?t=5237101
Следующий выпуск телепередачи: http://cybertorrent.ru/viewtopic.php?t=5300923
[cybertorrent.ru].t2823.torrent 
Торрент: Зарегистрирован [ 2018-02-16 14:35 ] · 574ABA3AD58DDC773C2A85AFAE256B5132D79B31

Скачать .torrent

Скачать

36 KB

Статус: проверено
Скачан: 0 раз
Размер: 7,15 GB
Профиль [ЛС]
Показать сообщения:    

Текущее время: 13-Ноя 00:41

Часовой пояс: UTC ± 0



Вы не можете начинать темы
Вы не можете отвечать на сообщения
Вы не можете редактировать свои сообщения
Вы не можете удалять свои сообщения
Вы не можете голосовать в опросах
Вы не можете прикреплять файлы к сообщениям
Вы можете скачивать файлы
Torrents24.ru открытый BitTorrent Torrents24.pl открытый BitTorrent CyberTorrent.ru открытый BitTorrent BtList.ru рейтинг BitTorrent трекеров Яндекс.Метрика