Статистика раздачи
Размер:  4,52 GB   |    Зарегистрирован:  8 месяцев 24 дня   |    Скачан:  0 раз

Полного источника не было: Никогда

 
   
 
 

DR_KTO ®

Пол:
Не указан
Стаж:
8 месяцев 25 дней
Сообщений:
105

Пора в космос! (28 вып.)
Дата/Год выпуска: 2014
Страна: Россия
Жанр: Детская, познавательная
Продолжительность: ~00:15:00 х 28
Перевод: Не требуется
Русские субтитры: нет
Ведущие: Егор Клинаев, Катя Филюгина
Телеканал: Карусель
Описание: Первая в истории телевизионная программа с МКС, созданная совместно с Роскосмосом.
Ведущие программы Егор и Катя мечтают полететь в космос, но для этого им нужно пройти специальную подготовку и сдать экзамен по теоретической части.
Каждый выпуск посвящён какой-то одной теме, в которой ведущим помогают разобраться специалисты на Земле и космонавты с МКС.
Сэмпл: http://multi-up.com/1120920
Ссылка на предыдущие и альтернативные раздачи: http://cybertorrent.ru/tracker.php?nm=%D0%9F%D0%BE%D1%80%D0%B0%20%D0%B2%20%D0...0%BC%D0%BE%D1%81!
Релиз:
качество: SATRip
формат: AVI
Видео: 704x400 (16:9), 25 fps, XviD build 64 ~1400 kbps avg, 0.20 bit/pixel
Аудио: 48 kHz, MPEG Layer 3, 2 ch, ~128.00 kbps avg

Список выпусков/серий

150 Скафандр.avi
151 Луна.avi
152 Послания в космос.avi
153 Астрономия и астрология.avi
154 Посадка космонавтов.avi
155 Гравитация.avi
156 Телескопы.avi
157 Сатурн.avi
158 Строение Земли. Движение материков (не полностью).avi
159 Экология.avi
160 Биологические часы.avi
161 Космическая семья Елены Серовой.avi
162 Юпитер.avi
163 Фаэтон.avi
164 Дублёры космонавтов.avi
165 Межпланетные полёты. Стартовые окна.avi
166 Проблемы межпланетных перелётов.avi
167 Животные в космосе.avi
168 Радиоволны. Космическая навигация.avi
169 Венера.avi
170 Бактерии.avi
171 Путешествия на Луну.avi
172 Автоматические космические станции.avi
173 Метеориты и метеоры.avi
174 Плутон.avi
175 Инструменты в космосе.avi
176 Работа в открытом космосе.avi
177 Творчество в космосе.avi

MediaInfo

Полное имя : D:\01 РАЗДАЧИ ШОУ\Пора в космос 150-177 2014\Пора в космос_3\151 Луна.avi
Формат : AVI
Формат/Информация : Audio Video Interleave
Размер файла : 165 Мбайт
Продолжительность : 15 м.
Общий поток : 1540 Кбит/сек
Программа кодирования : Lavf54.63.100
Видео
Идентификатор : 0
Формат : MPEG-4 Visual
Профиль формата : Advanced Simple@L5
Параметр BVOP формата : 2
Параметр QPel формата : Нет
Параметр GMC формата : Без точки перехода
Параметр матрицы формата : Default (H.263)
Идентификатор кодека : XVID
Идентификатор кодека/Подсказка : XviD
Продолжительность : 15 м.
Битрейт : 1399 Кбит/сек
Ширина : 704 пикселя
Высота : 400 пикселей
Соотношение сторон : 16:9
Частота кадров : 25,000 кадров/сек
Цветовое пространство : YUV
Субдискретизация насыщенности : 4:2:0
Битовая глубина : 8 бит
Тип развёртки : Прогрессивная
Метод сжатия : С потерями
Бит/(Пиксели*Кадры) : 0.199
Размер потока : 150 Мбайт (91%)
Библиотека кодирования : XviD 64
Аудио
Идентификатор : 1
Формат : MPEG Audio
Версия формата : Version 1
Профиль формата : Layer 3
Идентификатор кодека : 55
Идентификатор кодека/Подсказка : MP3
Продолжительность : 15 м.
Вид битрейта : Постоянный
Битрейт : 128 Кбит/сек
Каналы : 2 канала
Частота : 48,0 КГц
Метод сжатия : С потерями
Размер потока : 13,7 Мбайт (8%)
Выравнивание : Соединение по промежуткам
Продолжительность промежутка : 24 мс. (0,60 видеокадр)
Время предзагрузки промежутка : 24 мс.

Скриншоты

[cybertorrent.ru].t2829.torrent 
Торрент: Зарегистрирован [ 2018-02-16 14:35 ] · 8EE45BA3C7BDDBC3A7BB4EE76457EA58F6068D24

Скачать .torrent

Скачать

25 KB

Статус: проверено
Скачан: 0 раз
Размер: 4,52 GB
Профиль [ЛС]
Показать сообщения:    

Текущее время: 13-Ноя 01:19

Часовой пояс: UTC ± 0



Вы не можете начинать темы
Вы не можете отвечать на сообщения
Вы не можете редактировать свои сообщения
Вы не можете удалять свои сообщения
Вы не можете голосовать в опросах
Вы не можете прикреплять файлы к сообщениям
Вы можете скачивать файлы
Torrents24.ru открытый BitTorrent Torrents24.pl открытый BitTorrent CyberTorrent.ru открытый BitTorrent BtList.ru рейтинг BitTorrent трекеров Яндекс.Метрика