Статистика раздачи
Размер:  2,86 GB   |    Зарегистрирован:  3 месяца 12 дней   |    Скачан:  0 раз

Полного источника не было: Никогда

 
   
 
 

lopster ®

Пол:
Не указан
Стаж:
3 месяца 12 дней
Сообщений:
612

ВИКИНГ«Тебе нужно увидеть, чтобы поверить»- Жанр: история, драма
Год выпуска: 2016
Продолжительность: 02:22:07
Режиссер: Андрей Кравчук
В ролях: Данила Козловский (Владимир), Светлана Ходченкова (Ирина), Максим Суханов (Свенельд), Игорь Петренко (Варяжко), Андрей Смоляков (Роговолд), Владимир Епифанцев (Федор), Александра Бортич (Рогнеда), Кирилл Плетнёв (Олег), Александр Устюгов (Ярополк), Ростислав Бершауэр (Блуд), Павел Делонг (Анастас), Алексей Демидов (Самоха)
Описание: Раннее Средневековье. Время тяжелых мечей и темных законов крови. Правящий род в раздоре. Вина за случайную смерть брата легла на Великого Князя. По закону мстить ему должен младший брат - бастард. За отказ убивать он заплатит всем, что у него было, потому что «для мира нужно больше мечей, чем для войны».- -Качество: BDRip-AVC (исходник - Blu-ray|RUS Transfer)
Формат видео: MKV
Видео: x264, 912x382 (2.40:1) 24,000 fps, ~2375 kbps, 0.284 bit/pixel
Аудио: 48 kHz, AC3 Dolby Digital, 5.1 (Front: L C R, Side: L R, LFE) ch, ~448 kbps-

MediaInfo | x264 log

Format : Matroska
Format version : Version 4 / Version 2
File size : 2.86 GiB
Duration : 2h 22 min
Overall bit rate : 2 880 kb/s
Movie name : Викинг (2016) :: AFM ::
Encoded date : UTC 2017-05-16 16:52:30
Writing application : mkvmerge v8.3.0 ('Over the Horizon') 32bit
Writing library : libebml v1.3.1 + libmatroska v1.4.2
Video
ID : 1
Format : AVC
Format/Info : Advanced Video Codec
Format profile : High@L4.1
Format settings, CABAC : Yes
Format settings, ReFrames : 12 frames
Codec ID : V_MPEG4/ISO/AVC
Duration : 2h 22 min
Bit rate : 2 375 kb/s
Width : 912 pixels
Height : 382 pixels
Display aspect ratio : 2.40:1
Frame rate mode : Constant
Frame rate : 24.000 FPS
Color space : YUV
Chroma subsampling : 4:2:0
Bit depth : 8 bits
Scan type : Progressive
Bits/(Pixel*Frame) : 0.284
Stream size : 2.36 GiB (82%)
Title : BDRip by AFM
Writing library : x264 core 150 r2818+45 3daaad6 7mod [8-bit@all X86_64]
Encoding settings : cabac=1 / ref=12 / deblock=1:-2:-2 / analyse=0x3:0x113 / me=umh / subme=10 / psy=1 / fade_compensate=0.00 / psy_rd=1.00:0.00 / mixed_ref=1 / me_range=32 / chroma_me=0 / trellis=2 / 8x8dct=1 / cqm=0 / deadzone=21,11 / fast_pskip=0 / chroma_qp_offset=-2 / threads=6 / lookahead_threads=1 / sliced_threads=0 / nr=0 / decimate=1 / interlaced=0 / bluray_compat=0 / constrained_intra=0 / fgo=0 / bframes=14 / b_pyramid=2 / b_adapt=2 / b_bias=0 / direct=1 / weightb=1 / open_gop=0 / weightp=2 / keyint=240 / keyint_min=23 / scenecut=40 / intra_refresh=0 / rc_lookahead=60 / rc=crf / mbtree=0 / crf=18.4000 / qcomp=0.65 / qpmin=0:0:0 / qpmax=69:69:69 / qpstep=4 / vbv_maxrate=50000 / vbv_bufsize=62500 / crf_max=0.0 / nal_hrd=none / filler=0 / ip_ratio=1.35 / pb_ratio=1.25 / aq=3:0.85 / aq-sensitivity=10.00 / aq-factor=1.00:1.00:1.00 / aq2=0 / aq3=0 / zones=193375,204651,q=30
Language : Russian
Default : Yes
Forced : No
Audio
ID : 2
Format : AC-3
Format/Info : Audio Coding 3
Mode extension : CM (complete main)
Format settings, Endianness : Big
Codec ID : A_AC3
Duration : 2h 22 min
Bit rate mode : Constant
Bit rate : 448 kb/s
Channel(s) : 6 channels
Channel positions : Front: L C R, Side: L R, LFE
Sampling rate : 48.0 kHz
Frame rate : 31.250 FPS (1536 spf)
Compression mode : Lossy
Stream size : 455 MiB (16%)
Title : AC3 5.1 ~448 kbps
Language : Russian
Default : Yes
Forced : No
Menu
00:00:00.000 : ru:Глава 1
00:01:24.791 : ru:Глава 2
00:12:35.458 : ru:Глава 3
00:27:32.375 : ru:Глава 4
00:43:47.000 : ru:Глава 5
01:01:19.000 : ru:Глава 6
01:21:34.125 : ru:Глава 7
01:41:53.416 : ru:Глава 8
01:57:32.750 : ru:Глава 9

x264

x264 [info]: frame I:1620 Avg QP:18.31 size: 53679
x264 [info]: frame P:47083 Avg QP:19.55 size: 23593
x264 [info]: frame B:155948 Avg QP:21.73 size: 8931
x264 [info]: consecutive B-frames: 2.0% 2.6% 9.1% 35.4% 21.1% 19.3% 3.5% 1.5% 1.6% 0.4% 0.2% 0.2% 0.4% 0.7% 1.9%
x264 [info]: mb I I16..4: 4.0% 76.3% 19.7%
x264 [info]: mb P I16..4: 1.6% 19.3% 3.4% P16..4: 32.6% 24.8% 13.1% 0.0% 0.0% skip: 5.1%
x264 [info]: mb B I16..4: 0.2% 2.2% 0.6% B16..8: 36.1% 14.2% 4.6% direct:10.2% skip:32.0% L0:39.8% L1:41.3% BI:18.9%
x264 [info]: 8x8 transform intra:77.5% inter:64.2%
x264 [info]: coded y,uvDC,uvAC intra: 87.7% 82.3% 57.9% inter: 36.0% 29.9% 7.6%
x264 [info]: i16 v,h,dc,p: 35% 23% 10% 32%
x264 [info]: i8 v,h,dc,ddl,ddr,vr,hd,vl,hu: 9% 10% 7% 9% 13% 13% 13% 12% 14%
x264 [info]: i4 v,h,dc,ddl,ddr,vr,hd,vl,hu: 8% 8% 4% 9% 15% 15% 15% 12% 15%
x264 [info]: i8c dc,h,v,p: 44% 23% 17% 16%
x264 [info]: Weighted P-Frames: Y:97.9% UV:7.4%
x264 [info]: ref P L0: 49.8% 16.2% 13.5% 5.3% 4.0% 2.9% 2.5% 1.4% 1.3% 1.1% 1.0% 0.9% 0.1% 0.0%
x264 [info]: ref B L0: 80.3% 8.5% 4.0% 2.0% 1.5% 1.1% 0.9% 0.6% 0.5% 0.4% 0.2%
x264 [info]: ref B L1: 96.3% 3.7%
x264 [info]: kb/s:2430.46

Скриншоты

с названием

Торрент перезалит - замена видеоряда на оригинальный (BD RUS)
[cybertorrent.ru].t283.torrent 
Торрент: Зарегистрирован [ 2018-02-15 15:34 ] · 198C4278DA1EE384E4AAF707A84F1D48F34C4F89

Скачать .torrent

Скачать

15 KB

Статус: проверено
Скачан: 0 раз
Размер: 2,86 GB
Профиль [ЛС]
Показать сообщения:    

Текущее время: 28-Май 02:56

Часовой пояс: UTC ± 0



Вы не можете начинать темы
Вы не можете отвечать на сообщения
Вы не можете редактировать свои сообщения
Вы не можете удалять свои сообщения
Вы не можете голосовать в опросах
Вы не можете прикреплять файлы к сообщениям
Вы можете скачивать файлы