Статистика раздачи
Размер:  6,98 GB   |    Зарегистрирован:  5 месяцев 6 дней   |    Скачан:  0 раз

Полного источника не было: Никогда

 
   
 
 

soda ®

Пол:
Не указан
Стаж:
5 месяцев 8 дней
Сообщений:
205

Кингсглейв: Последняя фантазия XV / Kingsglaive: Final Fantasy XV Страна: Япония
Год выпуска: 2016
Жанр: фантастика, фэнтези, боевик, приключения, драма
Тип: Movie (полнометражный фильм)
Продолжительность: 115 мин.
Режиссер: Такэси Нодзуэ / Takeshi Nozue
Описание:
Волшебное королевство Люцис является домом для священного Кристалла, но враждебная империя Нифльхейм не остановится ни перед чем, чтобы захватить реликвию. Король Люциса Регис возглавляет элитный отряд солдат, именуемых «Кингсглейв». Вооружившись магией короля, Никс Ульрик и его верные товарищи из Кингсглейв становятся на защиту столицы Инсомния, чтобы остановить неумолимое наступление имперской армии.
Перед превосходящими силами Нифльхейма Королю Регису ничего не остаётся, как согласиться на ультиматум, уступив все свои земли за пределами столицы и женив своего сына Ноктиса на Леди Лунафрее, бывшей принцессе ныне захваченной земли Тенебра.
В разбушевавшейся войне махинации Нифльхейма превращают Инсомнию в грандиозное поле битвы, затягивая Никса в борьбу за выживание всего королевства.- -Качество: BDRip 720p
Тип релиза: Без хардсаба
Формат видео: MKV
Релиз/Автор рипа: delia / SbR
Совместимость с бытовыми плеерами: Нет
Видео: AVC (x264), 1280x536 (2.40:1) at 23,976 fps, 6551 Кbps, 0.398 bpp, 8 bit
Аудио 1: AC3; 640 Kbps; CBR; 6 ch; 48 khz | Язык Русский ; Озвучка: Многоголосая, закадровая (с Blu-ray EUR) |
Аудио 2: AC3; 640 Kbps; CBR; 6 ch; 48 khz | Язык Английский |
Аудио 3: AC3; 640 Kbps; CBR; 6 ch; 48 khz | Язык Японский |
Субтитры 1: srt, встроенные, английские (с Blu-ray EUR)
Субтитры 2: srt, встроенные, русские (с Blu-ray EUR)
Субтитры 3: srt, встроенные, украинские (с Blu-ray EUR)
Субтитры 4: srt, встроенные, немецкие (с Blu-ray EUR)

Скриншоты || x264 Info || MediaInfo

MediaInfo

Код:General
Unique ID : 212425088473136774459577691849945306245 (0x9FCF95795A68601B839ACC2FA9ACD485)
Complete name : Кингсглейв. Последняя фантазия XV.2016.MVO.720p.BluRay.x264-SbR.mkv
Format : Matroska
Format version : Version 4 / Version 2
File size : 6.98 GiB
Duration : 1h 55mn
Overall bit rate : 8 643 Kbps
Movie name : Kingsglaive: Final Fantasy XV [2016] [720p] MVO
Encoded date : UTC 2016-10-06 16:07:04
Writing application : mkvmerge v7.8.0 ('River Man') 32bit built on Mar 27 2015 16:18:02
Writing library : libebml v1.3.1 + libmatroska v1.4.2
Video
ID : 1
Format : AVC
Format/Info : Advanced Video Codec
Format profile : High@L4.1
Format settings, CABAC : Yes
Format settings, ReFrames : 12 frames
Codec ID : V_MPEG4/ISO/AVC
Duration : 1h 55mn
Bit rate : 6 551 Kbps
Width : 1 280 pixels
Height : 536 pixels
Display aspect ratio : 2.40:1
Frame rate mode : Constant
Frame rate : 23.976 fps
Color space : YUV
Chroma subsampling : 4:2:0
Bit depth : 8 bits
Scan type : Progressive
Bits/(Pixel*Frame) : 0.398
Stream size : 5.29 GiB (76%)
Title : profile.php?mode=viewprofile&u=22488948
Writing library : x264 core 148 r2705+54 9f484c1 t_mod_Custom [8-bit@all X86_64]
Encoding settings : cabac=1 / ref=12 / deblock=1:-3:-3 / analyse=0x3:0x133 / me=tesa / subme=9 / psy=1 / fade_compensate=0.00 / psy_rd=1.10:0.05 / mixed_ref=1 / me_range=48 / chroma_me=1 / trellis=2 / 8x8dct=1 / cqm=0 / deadzone=21,11 / fast_pskip=0 / chroma_qp_offset=-3 / threads=6 / lookahead_threads=1 / sliced_threads=0 / nr=0 / decimate=1 / interlaced=0 / bluray_compat=0 / constrained_intra=0 / fgo=0 / bframes=10 / b_pyramid=2 / b_adapt=2 / b_bias=0 / direct=3 / weightb=1 / open_gop=0 / weightp=2 / keyint=250 / keyint_min=23 / scenecut=40 / intra_refresh=0 / rc_lookahead=60 / rc=crf / mbtree=0 / crf=15.0000 / qcomp=0.70 / qpmin=0:0:0 / qpmax=69:69:69 / qpstep=4 / vbv_maxrate=62500 / vbv_bufsize=78125 / crf_max=0.0 / nal_hrd=none / filler=0 / ip_ratio=1.30 / pb_ratio=1.20 / aq=1:0.80 / aq-sensitivity=10.00 / aq-factor=1.00:1.00:1.00 / aq2=0 / aq3=0 / zones=49,325,crf=12.75/654,776,crf=12.75/1406,1410,crf=12.75/2598,2662,crf=12.75/2924,2985,crf=12.75/3119,3180,crf=12.75/3212,3256,crf=12.75/3274,3357,crf=12.75/3414,3556,crf=12.75/3615,3652,crf=12.75/3803,3814,crf=12.75/3878,4111,crf=12.75/4254,4382,crf=12.75/4496,4524,crf=12.75/4596,4721,crf=12.75/4792,4913,crf=12.75/5910,5994,crf=12.75/6021,6747,crf=12.75/6849,17641,crf=12.75/17884,17962,crf=12.75/56170,56308,crf=12.75/68172,68311,crf=12.75/83958,84039,crf=12.75/101237,101252,crf=12.75/101630,102297,crf=12.75/139981,146517,crf=12.75/119927,136535,crf=12.75/139981,146517,crf=12.75
Language : English
Default : Yes
Forced : No
Color primaries : BT.709
Transfer characteristics : BT.709
Matrix coefficients : BT.709
Color range : Limited
Audio #1
ID : 2
Format : AC-3
Format/Info : Audio Coding 3
Mode extension : CM (complete main)
Format settings, Endianness : Big
Codec ID : A_AC3
Duration : 1h 55mn
Bit rate mode : Constant
Bit rate : 640 Kbps
Channel(s) : 6 channels
Channel positions : Front: L C R, Side: L R, LFE
Sampling rate : 48.0 KHz
Bit depth : 16 bits
Compression mode : Lossy
Stream size : 529 MiB (7%)
Title : P, MVO
Language : Russian
Default : Yes
Forced : No
Audio #2
ID : 3
Format : AC-3
Format/Info : Audio Coding 3
Mode extension : CM (complete main)
Format settings, Endianness : Big
Codec ID : A_AC3
Duration : 1h 55mn
Bit rate mode : Constant
Bit rate : 640 Kbps
Channel(s) : 6 channels
Channel positions : Front: L C R, Side: L R, LFE
Sampling rate : 48.0 KHz
Bit depth : 16 bits
Compression mode : Lossy
Stream size : 529 MiB (7%)
Language : English
Default : No
Forced : No
Audio #3
ID : 4
Format : AC-3
Format/Info : Audio Coding 3
Mode extension : CM (complete main)
Format settings, Endianness : Big
Codec ID : A_AC3
Duration : 1h 55mn
Bit rate mode : Constant
Bit rate : 640 Kbps
Channel(s) : 6 channels
Channel positions : Front: L C R, Side: L R, LFE
Sampling rate : 48.0 KHz
Bit depth : 16 bits
Compression mode : Lossy
Stream size : 529 MiB (7%)
Language : Japanese
Default : No
Forced : No
Text #1
ID : 5
Format : UTF-8
Codec ID : S_TEXT/UTF8
Codec ID/Info : UTF-8 Plain Text
Language : English
Default : No
Forced : No
Text #2
ID : 6
Format : UTF-8
Codec ID : S_TEXT/UTF8
Codec ID/Info : UTF-8 Plain Text
Title : SDH
Language : English
Default : No
Forced : No
Text #3
ID : 7
Format : UTF-8
Codec ID : S_TEXT/UTF8
Codec ID/Info : UTF-8 Plain Text
Title : bluray
Language : Russian
Default : No
Forced : No
Text #4
ID : 8
Format : UTF-8
Codec ID : S_TEXT/UTF8
Codec ID/Info : UTF-8 Plain Text
Language : Ukrainian
Default : No
Forced : No
Text #5
ID : 9
Format : UTF-8
Codec ID : S_TEXT/UTF8
Codec ID/Info : UTF-8 Plain Text
Language : German
Default : No
Forced : No
Menu
00:00:00.000 : en:00:00:00.000
00:12:06.976 : en:00:12:06.976
00:15:48.531 : en:00:15:48.531
00:20:23.848 : en:00:20:23.848
00:25:41.999 : en:00:25:41.999
00:32:14.724 : en:00:32:14.724
00:39:02.215 : en:00:39:02.215
00:43:44.789 : en:00:43:44.789
00:50:06.295 : en:00:50:06.295
00:54:59.421 : en:00:54:59.421
01:02:13.521 : en:01:02:13.521
01:12:55.288 : en:01:12:55.288
01:21:00.230 : en:01:21:00.230
01:26:24.513 : en:01:26:24.513
01:37:18.374 : en:01:37:18.374
01:41:57.153 : en:01:41:57.153

x264 Info

[box=#F5F5F5,#F5F5F5]x264 [info]: frame I:1418 Avg QP:12.15 size:129829[/box]x264 [info]: frame P:43554 Avg QP:13.10 size: 61554x264 [info]: frame B:121276 Avg QP:14.79 size: 24445x264 [info]: consecutive B-frames: 4.2% 6.5% 11.9% 31.9% 14.3% 21.9% 3.0% 3.6% 0.9% 1.2% 0.6%

Source vs Encode

Source...........Encode

Отличия от других раздач

http://cybertorrent.ru/viewtopic.php?t=5275340 - BDRip 1080p, тут BDRip 720p
http://cybertorrent.ru/viewtopic.php?t=5285712 - Blu-ray disc, тут BDRip 720p
http://cybertorrent.ru/viewtopic.php?t=5275903 - SD, тут BDRip 720p
[cybertorrent.ru].t2834.torrent 
Торрент: Зарегистрирован [ 2018-02-16 14:35 ] · 03A37AAE1227BA98A615716B384343C7C55FC47D

Скачать .torrent

Скачать

18 KB

Статус: проверено
Скачан: 0 раз
Размер: 6,98 GB
Профиль [ЛС]
Показать сообщения:    

Текущее время: 23-Июл 13:55

Часовой пояс: UTC ± 0



Вы не можете начинать темы
Вы не можете отвечать на сообщения
Вы не можете редактировать свои сообщения
Вы не можете удалять свои сообщения
Вы не можете голосовать в опросах
Вы не можете прикреплять файлы к сообщениям
Вы можете скачивать файлы