Статистика раздачи
Размер:  3,97 GB   |    Зарегистрирован:  5 месяцев 4 дня   |    Скачан:  0 раз

Полного источника не было: Никогда

 
   
 
 

soda ®

Пол:
Не указан
Стаж:
5 месяцев 5 дней
Сообщений:
205

Последняя фантазия XV: Меч Короля / Kingsglaive: Final Fantasy XV
Страна: Япония
Год выпуска: 2016 г.
Жанр: фантастика, фэнтези, боевик, приключения, драма
Тип: Movie
Продолжительность: ~116 мин.
Режиссер: Нодзуэ Такэси
Студия: Square Enix Co. Ltd.
Описание: Волшебное королевство Люцис является домом для священного Кристалла, но враждебная империя Нифльхейм не остановится ни перед чем, чтобы захватить реликвию. Король Люциса Регис возглавляет элитный отряд солдат, именуемых «Кингсглейв». Вооружившись магией короля, Никс Ульрик и его верные товарищи из Кингсглейв становятся на защиту столицы Инсомния, чтобы остановить неумолимое наступление имперской армии.
Перед превосходящими силами Нифльхейма Королю Регису ничего не остаётся, как согласиться на ультиматум, уступив все свои земли за пределами столицы и женив своего сына Ноктиса на Леди Лунафрее, бывшей принцессе ныне захваченной земли Тенебра.
В разбушевавшейся войне махинации Нифльхейма превращают Инсомнию в грандиозное поле битвы, затягивая Никса в борьбу за выживание всего королевства.
Качество: BDRip (gt35)
Тип релиза: Без хардсаба
Формат видео: MKV
Видео: AVC (10 bit), 1280x544, 3651 kbps, 23.976 fps
Аудио: AC3, 640 kbps, 48.0 kHz, 6 ch Язык Японский
Аудио 2: AC3, 640 kbps, 48.0 kHz, 6 ch Язык Русский (внешним файлом) ; Озвучка: многоголосая, закадровая, Студия Пифагор
Субтитры: ASS, внешние, официальные (с Blu-ray EUR) Язык субтитров русский

Подробные тех. данные

General
Unique ID : 190035699031487586164522951529267164336 (0x8EF78B58FF20B5A6815B35F41E0774B0)
Complete name : Final Fantasy XV\Kingsglaive - Final Fantasy XV [BD] [720p]\[gt35] Kingsglaive - Final Fantasy XV [BDRip, 544p, AC3].mkv
Format : Matroska
Format version : Version 4 / Version 2
File size : 3.46 GiB
Duration : 1h 55mn
Overall bit rate : 4 292 Kbps
Encoded date : UTC 2016-10-06 15:53:17
Writing application : mkvmerge v9.4.2 ('So High') 64bit
Writing library : libebml v1.3.4 + libmatroska v1.4.5
Video
ID : 1
Format : AVC
Format/Info : Advanced Video Codec
Format profile : High 10@L5.1
Format settings, CABAC : Yes
Format settings, ReFrames : 9 frames
Codec ID : V_MPEG4/ISO/AVC
Duration : 1h 55mn
Bit rate : 3 651 Kbps
Width : 1 280 pixels
Height : 544 pixels
Display aspect ratio : 2.35:1
Frame rate mode : Constant
Frame rate : 23.976 (24000/1001) fps
Color space : YUV
Chroma subsampling : 4:2:0
Bit depth : 10 bits
Scan type : Progressive
Bits/(Pixel*Frame) : 0.219
Stream size : 2.94 GiB (85%)
Writing library : x264 core 148 r2638 7599210
Encoding settings : cabac=1 / ref=9 / deblock=1:-2:-2 / analyse=0x3:0x133 / me=umh / subme=9 / psy=1 / psy_rd=1.00:0.15 / mixed_ref=1 / me_range=24 / chroma_me=1 / trellis=2 / 8x8dct=1 / cqm=0 / deadzone=21,11 / fast_pskip=0 / chroma_qp_offset=-3 / threads=12 / lookahead_threads=2 / sliced_threads=0 / nr=0 / decimate=1 / interlaced=0 / bluray_compat=0 / constrained_intra=0 / bframes=8 / b_pyramid=2 / b_adapt=2 / b_bias=0 / direct=3 / weightb=1 / open_gop=0 / weightp=2 / keyint=240 / keyint_min=23 / scenecut=40 / intra_refresh=0 / rc_lookahead=40 / rc=crf / mbtree=1 / crf=16.7 / qcomp=0.72 / qpmin=0 / qpmax=68 / qpstep=4 / vbv_maxrate=300000 / vbv_bufsize=300000 / crf_max=0.0 / nal_hrd=none / filler=0 / ip_ratio=1.40 / aq=1:1.10
Language : Japanese
Default : Yes
Forced : No
Audio
ID : 2
Format : AC-3
Format/Info : Audio Coding 3
Mode extension : CM (complete main)
Format settings, Endianness : Big
Codec ID : A_AC3
Duration : 1h 55mn
Bit rate mode : Constant
Bit rate : 640 Kbps
Channel(s) : 6 channels
Channel positions : Front: L C R, Side: L R, LFE
Sampling rate : 48.0 KHz
Frame rate : 31.250 fps (1536 spf)
Compression mode : Lossy
Stream size : 528 MiB (15%)
Language : Japanese
Default : Yes
Forced : No

Скриншоты

[cybertorrent.ru].t2835.torrent 
Торрент: Зарегистрирован [ 2018-02-16 14:35 ] · A82E69226ECBD94C1543217D5A40F442AAEFBF5B

Скачать .torrent

Скачать

21 KB

Статус: проверено
Скачан: 0 раз
Размер: 3,97 GB
Профиль [ЛС]
Показать сообщения:    

Текущее время: 21-Июл 10:01

Часовой пояс: UTC ± 0



Вы не можете начинать темы
Вы не можете отвечать на сообщения
Вы не можете редактировать свои сообщения
Вы не можете удалять свои сообщения
Вы не можете голосовать в опросах
Вы не можете прикреплять файлы к сообщениям
Вы можете скачивать файлы