Статистика раздачи
Размер:  19,42 GB   |    Зарегистрирован:  8 месяцев 24 дня   |    Скачан:  0 раз

Полного источника не было: Никогда

 
   
 
 

DR_KTO ®

Пол:
Не указан
Стаж:
8 месяцев 25 дней
Сообщений:
105

Симпсоны / The Simpsons Страна: США
Жанр: Комедия, мультсериал, семейный
Продолжительность: 00:22:00
Год выпуска: 2016
Перевод: Профессиональный (многоголосый закадровый) Jaskier
Русские субтитры: нет
Режиссёр: Мэтт Гроунинг / Matt Groening
Роли озвучивали: Дэн Кастелланета, Джули Кавнер, Нэнси Картрайт, Ярдли Смит, Гарри Ширер, Хэнк Азария, Памела Хейден, Тресс МакНилл, Карл Видерготт, Мэгги Росвэл
Описание: «Симпсоны» - это пародия на всех и вся, и на типичный американский уклад жизни в целом. Главные герои этого мультсериала - показательная в своей типичности семья Симпсонов - обжора и лежебока, недалекий Гомер, его жена-умница домохозяйка Мардж, их дети сорванец Барт, одаренная умная девочка Лиза и совсем еще младенец Мэгги. Каждая серия не только богата юмором, но и высмеивает одну из волнующих современного человека тем, так что сериал с успехом пережил более 27 сезонов и продолжает успешное шествие по экранам. Отрезки, шутки, сами герои Симпсонов стали неотъемлемой частью современной поп-культуры, а их имена стали именами нарицательными.
Ссылка на предыдущие и альтернативные раздачи: http://cybertorrent.ru/tracker.php?nm=%F1%E8%EC%EF%F1%EE%ED
Семпл: http://sendfile.su/1272488
Качество: WEB-DL 1080p
Формат: MKV
Видео: H264, 1916x1076 (16:9), 23.976 fps, ~5100 kbps
Аудио 1: AC3, 48 kHz, 6 ch, 384 kbps
Аудио 2: AC3, 48 kHz, 6 ch, 384 kbps
Субтитры: Английские

Релиз

Khoren2013
Перевод: Профессиональный (многоголосый закадровый) студия Jaskier
Релиз без рекламы

Подробные технические данные

General
Unique ID : 224063226687604791865919154817125241260 (0xA89101FD4DECD46FACA104381D9AD1AC)
Complete name : D:\Torrent\The.Simpsons.S28.1080p.WEB-DL.DD5.1.H.264-Jaskier\The.Simpsons.S28E01.Monty.Burns.Fleeing.Circus.1080p.WEB-DL.DD5.1.H.264-Jaskier.mkv
Format : Matroska
Format version : Version 4 / Version 2
File size : 966 MiB
Duration : 22 min 49 s
Overall bit rate : 5 918 kb/s
Encoded date : UTC 2016-10-08 10:45:48
Writing application : mkvmerge v9.4.2 ('So High') 64bit
Writing library : libebml v1.3.4 + libmatroska v1.4.5
Cover : Yes
Attachments : cover.simpsons.jpg
Video
ID : 1
Format : AVC
Format/Info : Advanced Video Codec
Format profile : High@L4
Format settings, CABAC : Yes
Format settings, ReFrames : 4 frames
Codec ID : V_MPEG4/ISO/AVC
Duration : 22 min 49 s
Bit rate : 5 147 kb/s
Width : 1 916 pixels
Height : 1 076 pixels
Display aspect ratio : 16:9
Frame rate mode : Constant
Frame rate : 23.976 (24000/1001) FPS
Color space : YUV
Chroma subsampling : 4:2:0
Bit depth : 8 bits
Scan type : Progressive
Bits/(Pixel*Frame) : 0.104
Stream size : 841 MiB (87%)
Language : English
Default : Yes
Forced : No
Color range : Limited
Color primaries : BT.709
Transfer characteristics : BT.709
Matrix coefficients : BT.709
Audio #1
ID : 2
Format : AC-3
Format/Info : Audio Coding 3
Mode extension : CM (complete main)
Format settings, Endianness : Big
Codec ID : A_AC3
Duration : 22 min 49 s
Bit rate mode : Constant
Bit rate : 384 kb/s
Channel(s) : 6 channels
Channel positions : Front: L C R, Side: L R, LFE
Sampling rate : 48.0 kHz
Frame rate : 31.250 FPS (1536 spf)
Compression mode : Lossy
Stream size : 62.7 MiB (6%)
Language : Russian
Default : Yes
Forced : No
Audio #2
ID : 3
Format : AC-3
Format/Info : Audio Coding 3
Mode extension : CM (complete main)
Format settings, Endianness : Big
Codec ID : A_AC3
Duration : 22 min 49 s
Bit rate mode : Constant
Bit rate : 384 kb/s
Channel(s) : 6 channels
Channel positions : Front: L C R, Side: L R, LFE
Sampling rate : 48.0 kHz
Frame rate : 31.250 FPS (1536 spf)
Compression mode : Lossy
Stream size : 62.7 MiB (6%)
Language : English
Default : No
Forced : No
Text
ID : 4
Format : UTF-8
Codec ID : S_TEXT/UTF8
Codec ID/Info : UTF-8 Plain Text
Duration : 22 min 44 s
Bit rate : 90 b/s
Count of elements : 536
Stream size : 15.0 KiB (0%)
Language : English
Default : No
Forced : No

Скриншоты



[cybertorrent.ru].t2837.torrent 
Торрент: Зарегистрирован [ 2018-02-16 14:35 ] · 77C1C7223AE6CE0231C1DB96B85EEB4A16E5D7C1

Скачать .torrent

Скачать

51 KB

Статус: проверено
Скачан: 0 раз
Размер: 19,42 GB
Профиль [ЛС]
Показать сообщения:    

Текущее время: 13-Ноя 00:07

Часовой пояс: UTC ± 0



Вы не можете начинать темы
Вы не можете отвечать на сообщения
Вы не можете редактировать свои сообщения
Вы не можете удалять свои сообщения
Вы не можете голосовать в опросах
Вы не можете прикреплять файлы к сообщениям
Вы можете скачивать файлы
Torrents24.ru открытый BitTorrent Torrents24.pl открытый BitTorrent CyberTorrent.ru открытый BitTorrent BtList.ru рейтинг BitTorrent трекеров Яндекс.Метрика