Статистика раздачи
Размер:  2,76 GB   |    Зарегистрирован:  9 месяцев 3 дня   |    Скачан:  0 раз
Сидов:  2  [  0 KB/s  ]   Личеров:  4  [  0 KB/s  ]  
 
   
 
 

irkutsk ®

Пол:
Не указан
Стаж:
9 месяцев 5 дней
Сообщений:
175

Южный Парк / South Park
Страна: США
Жанр: комедия, мультсериал
Продолжительность: 00:22:00
Год выпуска: 2016
-Перевод: Одноголосый закадровый - (L0cDoG)
Русские субтитры: нет-Режиссёр: Трей Паркер, Эрик Сточ, Мэтт Стоун-Роли озвучивали: Трей Паркер, Мэтт Стоун, Мона Маршалл, Эйприл Стюарт, Айзек Хейз, Элиза Шнайдер, Эдриан Бирд, Мэри Кэй Бергман, Дженнифер Хауэлл, Кайл Маккаллок-Описание: Южный Парк / South Park — американский мультсериал, созданный Мэттом Стоуном и Треем Паркером. Иногда название переводится также как «Саут-Парк» или «Саус-Парк». Выпускается кабельным телеканалом Comedy Central с 1997 года. Основу сюжета составляют приключения четырёх мальчиков и их друзей, живущих в маленьком городке Саут-Парк, штат Колорадо. Сериал высмеивает недостатки американской культуры и текущие мировые события, а также подвергает критике множество глубоких убеждений и табу посредством пародии и чёрного юмора. «Южный Парк» выходит поздно вечером и позиционируется как мультфильм для взрослых.- / -Ссылка на предыдущие и альтернативные раздачи / Сэмпл-Качество: HDTVRip
Формат: AVI
Видео: 720x400 (16:9), 23.976 fps, XviD build 73, 1534 Kbps, 0.222, bits/pixel
Аудио 1: MP3, 48.0 KHz, 2 ch, 128 Kbps [Russ, L0cDoG]
Аудио 2: MP3, 48.0 KHz, 2 ch, 128 Kbps [Englisch]
Субтитры: "отсутствуют"

Скриншоты

MediaInfo

General
Complete name : Downloads\South Park (Season 20) L0cDoG
Format : AVI
Format/Info : Audio Video Interleave
File size : 281 MiB
Duration : 21mn 45s
Overall bit rate : 1 804 Kbps
Writing application : VirtualDubMod 1.5.10.3 | www.virtualdub-fr.org || (build 2550/release)
Writing library : VirtualDubMod build 2550/release
Video #0
ID : 0
Format : MPEG-4 Visual
Format profile : Advanced Simple@L5
Format settings, BVOP : 1
Format settings, QPel : No
Format settings, GMC : No warppoints
Format settings, Matrix : Default (MPEG)
Codec ID : XVID
Codec ID/Hint : XviD
Duration : 21mn 45s
Bit rate : 1 534 Kbps
Width : 720 pixels
Height : 400 pixels
Display aspect ratio : 16:9
Frame rate : 23.976 fps
Color space : YUV
Chroma subsampling : 4:2:0
Bit depth : 8 bits
Scan type : Progressive
Compression mode : Lossy
Bits/(Pixel*Frame) : 0.222
Stream size : 239 MiB (85%)
Writing library : XviD 73
Audio #1
ID : 1
Format : MPEG Audio
Format version : Version 1
Format profile : Layer 3
Mode : Joint stereo
Codec ID : 55
Codec ID/Hint : MP3
Duration : 21mn 45s
Bit rate mode : Constant
Bit rate : 128 Kbps
Channel(s) : 2 channels
Sampling rate : 48.0 KHz
Compression mode : Lossy
Stream size : 19.9 MiB (7%)
Alignment : Aligned on interleaves
Interleave, duration : 42 ms (1.00 video frame)
Interleave, preload duration : 504 ms
Audio #2
ID : 2
Format : MPEG Audio
Format version : Version 1
Format profile : Layer 3
Mode : Joint stereo
Codec ID : 55
Codec ID/Hint : MP3
Duration : 21mn 45s
Bit rate mode : Constant
Bit rate : 128 Kbps
Channel(s) : 2 channels
Sampling rate : 48.0 KHz
Compression mode : Lossy
Stream size : 19.9 MiB (7%)
Alignment : Aligned on interleaves
Interleave, duration : 42 ms (1.00 video frame)
Interleave, preload duration : 504 ms

Внимание! Раздача ведётся путём добавления новых серий:

(1) остановить скачивание,
(2) удалить старый торрент у себя из клиента (старые серии удалять не надо),
(3) скачать новый торрент и запустить его у себя в клиенте вместо старого, при этом указать клиенту путь в старую папку куда и должно происходить скачивание новых серий.
Ваш клиент при этом должен произвести хеширование (проверку) старой папки (если не производит сам - помогите ему сделать это), и будет докачивать только те серии которых у вас ещё нет. Старые серии при этом не удаляются, а продолжают раздаваться!
Eсли вы уже удалили старые серии, то предотвратить повторную закачку старых серий можно, отжав галочку в соответсвующих местах при запуске нового торрента. По возможности, желательно не удалять старые серии как можно дольше чтобы релизёр не столько продолжал раздавать старые серии, а смог сконцентрироваться на новых
.
[cybertorrent.ru].t2847.torrent 
Торрент: Зарегистрирован [ 2018-02-16 14:35 ] · A668B6A210465DEDDAAA5751F8A7D7B8CFDA261A

Скачать .torrent

Скачать

15 KB

Статус: проверено
Скачан: 0 раз
Размер: 2,76 GB
Профиль [ЛС]
Показать сообщения:    

Текущее время: 20-Ноя 13:12

Часовой пояс: UTC ± 0



Вы не можете начинать темы
Вы не можете отвечать на сообщения
Вы не можете редактировать свои сообщения
Вы не можете удалять свои сообщения
Вы не можете голосовать в опросах
Вы не можете прикреплять файлы к сообщениям
Вы можете скачивать файлы
Torrents24.ru открытый BitTorrent Torrents24.pl открытый BitTorrent CyberTorrent.ru открытый BitTorrent BtList.ru рейтинг BitTorrent трекеров Яндекс.Метрика