Статистика раздачи
Размер:  1,37 GB   |    Зарегистрирован:  3 месяца 10 дней   |    Скачан:  0 раз

Полного источника не было: Никогда

 
   
 
 

lopster ®

Пол:
Не указан
Стаж:
3 месяца 11 дней
Сообщений:
612

Шахта
Жанр: Драма, мелодрама
Год выпуска: 2013
Продолжительность: 01:19:35
Режиссёр: Нурбек Эген
В ролях: Никита Осадчий, Виталий Кищенко, Сергей Шнуров, Надежда Маркина, Шэвлин Стэйси, Вэрфилд Морис, Виктория Романенко
Описание: Подросток Саша живет вместе с сестрой в маленьком шахтерском городке на севере России. Его отец, бывший шахтер, уехал в Америку в надежде сделать там карьеру боксера. А Саня пока учит английский и мечтает о том, чтобы отец забрал его к себе. Но для этого он должен победить на ринге сильного противника. Смогут ли отец и сын когда-нибудь быть вместе?
Доп. информация:
Автор релиза -
Источник аудио и видео для рипа - HDTV 1080i TS - моя запись с канала Наш Кинороман HD
Есть субтитры русские вшитые неотключаемые на английскую речь


Сэмпл: https://yadi.sk/i/TbYXF8VD3HUddx
Рекламы нет!
Качество видео: HDTVRip
Формат видео: AVI
Видео: XviD, 720x304 (16:9), 25.000 fps, 2011 kbps, 0.367 bit/pixel
Аудио: Русский AC3, 48000 Гц, 6ch, 448 kbps

MediaInfo

Общее
Полное имя : D:\Шахта.2013.HDTVRip-ylnian.avi
Формат : AVI
Формат/Информация : Audio Video Interleave
Размер файла : 1,37 Гбайт
Продолжительность : 1 ч. 19 м.
Общий поток : 2469 Кбит/сек
Название фильма : Шахта.2012.HDTVRip-ylnian
Программа кодирования : VirtualDubMod 1.5.10.2 (build 2540/release)
Библиотека кодирования : VirtualDubMod build 2540/release
Видео
Идентификатор : 0
Формат : MPEG-4 Visual
Профиль формата : Advanced Simple@L5
Параметр BVOP формата : 1
Параметр QPel формата : Нет
Параметр GMC формата : Без точки перехода
Параметр матрицы формата : Default (MPEG)
Идентификатор кодека : XVID
Идентификатор кодека/Подсказка : XviD
Продолжительность : 1 ч. 19 м.
Битрейт : 2011 Кбит/сек
Ширина : 720 пикселей
Высота : 304 пикселя
Соотношение сторон : 2,35:1
Частота кадров : 25,000 кадров/сек
Цветовое пространство : YUV
Субдискретизация насыщенности : 4:2:0
Битовая глубина : 8 бит
Тип развёртки : Прогрессивная
Метод сжатия : С потерями
Бит/(Пиксели*Кадры) : 0.367
Размер потока : 1,12 Гбайт (81%)
Библиотека кодирования : XviD 67
Аудио
Идентификатор : 1
Формат : AC-3
Формат/Информация : Audio Coding 3
Параметр Endianness формата : Big
Идентификатор кодека : 2000
Продолжительность : 1 ч. 19 м.
Вид битрейта : Постоянный
Битрейт : 448 Кбит/сек
Каналы : 6 каналов
Расположение каналов : Front: L C R, Side: L R, LFE
Частота : 48,0 КГц
Частота кадров : 31,250 кадров/сек (1536 spf)
Битовая глубина : 16 бит
Метод сжатия : С потерями
Размер потока : 255 Мбайт (18%)
Выравнивание : Разделение по промежуткам
Продолжительность промежутка : 40 мс. (1,00 видеокадр)
Время предзагрузки промежутка : 500 мс.
Заголовок : RUS
ServiceKind/String : Complete Main

Сравнение

Сравнение скриншотов с DVDRip-ом - http://screenshotcomparison.com/comparison/208339
[cybertorrent.ru].t285.torrent 
Торрент: Зарегистрирован [ 2018-02-15 15:34 ] · B1D75C5A6500961EEC1BA778FFABBAF16B8C7C08

Скачать .torrent

Скачать

14 KB

Статус: проверено
Скачан: 0 раз
Размер: 1,37 GB
Профиль [ЛС]
Показать сообщения:    

Текущее время: 26-Май 15:22

Часовой пояс: UTC ± 0



Вы не можете начинать темы
Вы не можете отвечать на сообщения
Вы не можете редактировать свои сообщения
Вы не можете удалять свои сообщения
Вы не можете голосовать в опросах
Вы не можете прикреплять файлы к сообщениям
Вы можете скачивать файлы