Статистика раздачи
Размер:  1,46 GB   |    Зарегистрирован:  7 месяцев 2 дня   |    Скачан:  0 раз

Полного источника не было: Никогда

   
 

karlll ®

Пол:
Не указан
Стаж:
7 месяцев 7 дней
Сообщений:
171

Ральф против интернета / Ralph Breaks the Internet«From the digital world behind Wreck-It Ralph and Zootopia»- Страна: США
Жанр: Мультфильм, фэнтези, комедия, приключения, семейны
Продолжительность: 01:53:02
Год выпуска: 2018
Перевод: Профессиональный (дублированный)
Русские субтитры: нет-Режиссёр: Фил Джонстон / Phil Johnston, Рич Мур / Rich Moore-Роли озвучивали: Джон С. Райлли, Сара Силверман, Галь Гадот, Тараджи П. Хенсон, Джек МакБрайер, Джейн Линч, Алан Тьюдик, Альфред Молина, Эд О`Нил, Шон Джамброун-Описание: На этот раз Ральф и Ванилопа фон Кекс выйдут за пределы зала игровых автоматов и отправятся покорять бескрайние просторы интернета, который может и не выдержать сокрушительного обаяния громилы.- / -Релиз от: MegaPeer-Качество: WEB-DLRip
Формат: AVI
Видео: 720x304 (2.35:1), 23.976 fps, XviD build 73, 1457 Kbps
Аудио: 48 kHz, AC3 Dolby Digital, 6 ch, 384 Kbps - iTunes
Субтитры: отсутствуют

MediaInfo

General
Complete name : Downloads\Ralph.Breaks.the.Internet.2018.WEB-DLRip.1.46Gb.MegaPeer.avi
Format : AVI
Format/Info : Audio Video Interleave
File size : 1.46 GiB
Duration : 1h 53mn
Overall bit rate : 1 850 Kbps
Writing application : VirtualDubMod 1.5.10.3 | www.virtualdub-fr.org || (build 2550/release)
Writing library : VirtualDubMod build 2550/release
Video #0
ID : 0
Format : MPEG-4 Visual
Format profile : Advanced Simple@L5
Format settings, BVOP : 1
Format settings, QPel : No
Format settings, GMC : No warppoints
Format settings, Matrix : Custom
Codec ID : XVID
Codec ID/Hint : XviD
Duration : 1h 53mn
Bit rate : 1 457 Kbps
Width : 720 pixels
Height : 304 pixels
Display aspect ratio : 2.35:1
Frame rate : 23.976 fps
Color space : YUV
Chroma subsampling : 4:2:0
Bit depth : 8 bits
Scan type : Progressive
Compression mode : Lossy
Bits/(Pixel*Frame) : 0.278
Stream size : 1.15 GiB (79%)
Writing library : XviD 73
Audio #1
ID : 1
Format : AC-3
Format/Info : Audio Coding 3
Mode extension : CM (complete main)
Format settings, Endianness : Big
Codec ID : 2000
Duration : 1h 53mn
Bit rate mode : Constant
Bit rate : 384 Kbps
Channel(s) : 6 channels
Channel positions : Front: L C R, Side: L R, LFE
Sampling rate : 48.0 KHz
Bit depth : 16 bits
Compression mode : Lossy
Stream size : 310 MiB (21%)
Alignment : Split accross interleaves
Interleave, duration : 42 ms (1.00 video frame)
Interleave, preload duration : 500 ms

Скриншоты

[cybertorrent.ru].t286.torrent 
Торрент: Зарегистрирован [ 2019-03-18 10:04 ] · 83DC05FF97C08EB6F0B064F07226EA72B37FDAAF

Скачать .torrent

Скачать

15 KB

Статус: проверено
Скачан: 0 раз
Размер: 1,46 GB
terms.php
Профиль ЛС
Показать сообщения:    

Текущее время: 20-Окт 10:58

Часовой пояс: UTC ± 0



Вы не можете начинать темы
Вы не можете отвечать на сообщения
Вы не можете редактировать свои сообщения
Вы не можете удалять свои сообщения
Вы не можете голосовать в опросах
Вы не можете прикреплять файлы к сообщениям
Вы можете скачивать файлы