Статистика раздачи
Размер:  6,71 GB   |    Зарегистрирован:  9 месяцев 3 дня   |    Скачан:  0 раз

Полного источника не было: Никогда

 
   
 
 

Volga ®

Пол:
Не указан
Стаж:
9 месяцев 5 дней
Сообщений:
92

Le Plus Grand Cabaret du Monde - 22.10.16
Год выпуска: 2016
Страна: Франция
Жанр: шоу, кабаре, цирк
Продолжительность: 01:31:00
Описание:
Выпуск (от 22.10.16) телепередачи "Le Plus Grand Cabaret du Monde"
(телеканал France 2) в Full HD качестве. Оставлены только выступления артистов. Перевод не требуется.
Выступают:
01. Georgian Arrow - Quator danse georgienne
02. Livio Tudor - Les assiettes et le chien
03. Victor Moiseev - Jongleur Boules
04. Raymond Crowe - Burlesque - veste et micro
05. Malevo - Troupe tambours et boleadoras
06. Bernard Bilis
07. Ernesto Planas - Magicien Parapluies
08. Chilly and Fly - Cadre russe
09. Ruben Vilagrand - Magie cravates
10. Machine du cirque - troupe planche coreenne
11. Timothy Trust - Grande illusion The Diamond
12. Cirka Cuba - Troupe filles pole dance
13. Bello Nock - Clown le ballon
14. Red Bull Flying Illusion - Troupe de hip hop
15. Shezan - Magie Mille et une Nuit
16. Katerina Abakarova - Sangles aériennes
17. Dani Lary - Grande illusion - Le caddie magique
18. Patrick Sebastien
Дополнительная информация: используемый видеоредактор - TMPGEnc MPEG Smart Renderer 4
Качество: HDTVRip
Контейнер: mkv
Видео кодек: H.264
Аудио кодек: AC3
Чаптеры: есть
Видео: H.264, 1920x1080, 25.000 fps, 10500 Kbps
Аудио: AC3, 2.0 ch, 48000 Hz, 384 Kbps

MediaInfo

Общее
Уникальный идентификатор : 303807243123717996473066074203919492690 (0xE48F258D2C23A845962B0E8A00B42652)
Полное имя : E:\Le Plus Grand Cabaret du Monde 22.10.16.mkv
Формат : Matroska
Версия формата : Version 4 / Version 2
Размер файла : 6,71 Гбайт
Продолжительность : 1 ч. 31 м.
Общий поток : 10,5 Мбит/сек
Дата кодирования : UTC 2016-10-23 05:57:36
Программа кодирования : TMPGEnc MPEG Smart Renderer 4 Version 4.2.4.68
Библиотека кодирования : TMPGEnc MPEG Smart Renderer 4 Version 4.2.4.68
Видео
Идентификатор : 1
Формат : AVC
Формат/Информация : Advanced Video Codec
Профиль формата : High@L4
Параметр CABAC формата : Да
Параметр ReFrames формата : 4 кадра
Идентификатор кодека : V_MPEG4/ISO/AVC
Продолжительность : 1 ч. 31 м.
Битрейт : 9955 Кбит/сек
Ширина : 1920 пикселей
Высота : 1080 пикселей
Соотношение сторон : 16:9
Режим частоты кадров : Постоянный
Частота кадров : 25,000 кадров/сек
Стандарт вещания : Component
Цветовое пространство : YUV
Субдискретизация насыщенности : 4:2:0
Битовая глубина : 8 бит
Тип развёртки : Чересстрочная
Порядок развёртки : Верхнее поле первое
Бит/(Пиксели*Кадры) : 0.192
Размер потока : 6,33 Гбайт (94%)
Default : Да
Forced : Нет
Цветовой диапазон : Limited
Основные цвета : BT.601 PAL
Характеристики трансфера : BT.470 System B, BT.470 System G
Коэффициенты матрицы : BT.601
Аудио
Идентификатор : 2
Формат : AC-3
Формат/Информация : Audio Coding 3
Расширение режима : CM (complete main)
Параметр Endianness формата : Big
Идентификатор кодека : A_AC3
Продолжительность : 1 ч. 31 м.
Вид битрейта : Постоянный
Битрейт : 384 Кбит/сек
Каналы : 2 канала
Расположение каналов : Front: L R
Частота : 48,0 КГц
Метод сжатия : С потерями
Размер потока : 250 Мбайт (4%)
Язык : French
Default : Да
Forced : Нет
Меню

Скриншоты


Предыдущий выпуск телепередачи: http://cybertorrent.ru/viewtopic.php?t=5287270
Следующий выпуск телепередачи: http://cybertorrent.ru/viewtopic.php?t=5335340
[cybertorrent.ru].t2861.torrent 
Торрент: Зарегистрирован [ 2018-02-16 14:35 ] · 31B20372A1B441DB4C2A725DC02A3B52EA360605

Скачать .torrent

Скачать

34 KB

Статус: проверено
Скачан: 0 раз
Размер: 6,71 GB
Профиль [ЛС]
Показать сообщения:    

Текущее время: 20-Ноя 14:14

Часовой пояс: UTC ± 0



Вы не можете начинать темы
Вы не можете отвечать на сообщения
Вы не можете редактировать свои сообщения
Вы не можете удалять свои сообщения
Вы не можете голосовать в опросах
Вы не можете прикреплять файлы к сообщениям
Вы можете скачивать файлы
Torrents24.ru открытый BitTorrent Torrents24.pl открытый BitTorrent CyberTorrent.ru открытый BitTorrent BtList.ru рейтинг BitTorrent трекеров Яндекс.Метрика