Статистика раздачи
Размер:  2,72 GB   |    Зарегистрирован:  8 месяцев 26 дней   |    Скачан:  0 раз

Полного источника не было: Никогда

 
   
 
 

DR_KTO ®

Пол:
Не указан
Стаж:
8 месяцев 27 дней
Сообщений:
105

Зов джунглей (10 выпусков)
Год выпуска: 1995-1996
Страна: Россия
Жанр: детская развлекательная игра
Продолжительность: 1 выпуск ~ 24 минуты
Перевод: Не требуется
Русские субтитры: нет
Релиз собственный
Режиссер: Павел Забелин
Телеканал: Детский (ОРТ)
Описание: «Зов джунглей» — детская развлекательная передача. Первоначально выходила на Первом канале Останкино еженедельно в каждую субботу с 1993 по 25 марта 1995 года и на ОРТ в каждую среду с 5 апреля 1995 до 12 января 2002 года. В ходе программы две команды "Хищники" и "Травоядные" соревновались между собой в различных конкурсах и заданиях. Передача удостоена премии «ТЭФИ» в 1999 году. Первый ведущий программы — Сергей Супонев (1993—1997). После него передачу вели также Пётр Фёдоров (1997-1998) и Николай Гадомский (Николай Охотник) (1998-2002).
Доп. информация: 4 выпуска 1998-2000 годов
Звездный час
качество: SATRip
формат: AVI
Видео: 720x544 (1.32:1), 25 fps, XviD MPEG-4 ~1500 kbps avg, 0.15 bit/pixel
Аудио: 48 kHz, MPEG Layer 3, 2 ch, ~128.00 kbps avg

MediaInfo

Формат : AVI
Формат/Информация : Audio Video Interleave
Размер файла : 287 Мбайт
Продолжительность : 24 м.
Общий поток : 1653 Кбит/сек
Библиотека кодирования : VirtualDub build 32842/release
Правообладатель : SATRip by Fakhrey
Примечание : rutracker.org
Видео
Идентификатор : 0
Формат : MPEG-4 Visual
Профиль формата : Advanced Simple@L5
Параметр BVOP формата : 2
Параметр QPel формата : Нет
Параметр GMC формата : Без точки перехода
Параметр матрицы формата : Default (H.263)
Идентификатор кодека : XVID
Идентификатор кодека/Подсказка : XviD
Продолжительность : 24 м.
Битрейт : 1516 Кбит/сек
Ширина : 720 пикселей
Высота : 544 пикселя
Соотношение сторон : 4:3
Частота кадров : 25,000 кадров/сек
Цветовое пространство : YUV
Субдискретизация насыщенности : 4:2:0
Битовая глубина : 8 бит
Тип развёртки : Прогрессивная
Метод сжатия : С потерями
Бит/(Пиксели*Кадры) : 0.155
Размер потока : 263 Мбайт (92%)
Библиотека кодирования : XviD 64
Аудио
Идентификатор : 1
Формат : MPEG Audio
Версия формата : Version 1
Профиль формата : Layer 3
Режим : Joint stereo
Расширение режима : MS Stereo
Идентификатор кодека : 55
Идентификатор кодека/Подсказка : MP3
Продолжительность : 24 м.
Вид битрейта : Постоянный
Битрейт : 128 Кбит/сек
Каналы : 2 канала
Частота : 48,0 КГц
Метод сжатия : С потерями
Размер потока : 22,2 Мбайт (8%)
Выравнивание : Разделение по промежуткам
Продолжительность промежутка : 40 мс. (1,00 видеокадр)
Время предзагрузки промежутка : 500 мс.

Выпуски, скриншоты и скринлисты

Выпуск 1 (1995)

Выпуск 2 (1995) Желтый кошмар - Му-му. 1 чемпионат. Финал

Выпуск 3 (1995) Тихий ужас - Ку-ку. 2 полуфинал

Выпуск 4 (1995) Бармины - Новиковы

Выпуск 5 (1995)

Выпуск 6 (1995) Желтый кошмар - Орлиный глаз. 1 чемпионат

Выпуск 7 (1996) Зеленка - Клевер. 6 чемпионат. 2 полуфинал

Выпуск 8 (1996) Одуван - Овцы. 6 чемпионат. 1 полуфинал

Выпуск 9 (1995)

Выпуск 10 (1996) Клевер - Живоглоты. 6 чемпионат. Последняя отборочная игра

Внимание! Раздача ведётся путём добавления новых выпусков

Внимание! Раздача ведётся путём добавления новых выпусков; при каждом добавлении создаётся новый торрент. Чтобы начать докачку нового выпуска, пользователям необходимо сделать следующее:
(1) остановить скачивание,
(2) удалить старый торрент у себя из клиента (старые серии удалять не надо),
(3) скачать новый торрент и запустить его у себя в клиенте вместо старого, при этом указать клиенту путь в старую папку куда и должно происходить скачивание новых выпусков.
Ваш клиент при этом должен произвести хеширование (проверку) старой папки (если не производит сам - помогите ему сделать это). В результате он будет докачивать только те выпуски, которых у Вас ещё нет. Старые выпуски при этом не удаляются, а продолжают раздаваться!
Eсли Вы уже удалили старые выпуски, то предотвратить их повторную закачку можно, сняв галочки в соответствующих местах при запуске нового торрента. По возможности, желательно не удалять старые выпуски как можно дольше, чтобы релизёр не только продолжал раздавать старые выпуски, но и смог сконцентрироваться на новых.
[cybertorrent.ru].t2868.torrent 
Торрент: Зарегистрирован [ 2018-02-16 14:35 ] · 873CEC656E2EDAFF86570E68BC608C7D65173FD5

Скачать .torrent

Скачать

15 KB

Статус: проверено
Скачан: 0 раз
Размер: 2,72 GB
Профиль [ЛС]
Показать сообщения:    

Текущее время: 14-Ноя 19:17

Часовой пояс: UTC ± 0



Вы не можете начинать темы
Вы не можете отвечать на сообщения
Вы не можете редактировать свои сообщения
Вы не можете удалять свои сообщения
Вы не можете голосовать в опросах
Вы не можете прикреплять файлы к сообщениям
Вы можете скачивать файлы
Torrents24.ru открытый BitTorrent Torrents24.pl открытый BitTorrent CyberTorrent.ru открытый BitTorrent BtList.ru рейтинг BitTorrent трекеров Яндекс.Метрика