Статистика раздачи
Размер:  1,46 GB   |    Зарегистрирован:  3 месяца 12 дней   |    Скачан:  0 раз

Полного источника не было: Никогда

 
   
 
 

lopster ®

Пол:
Не указан
Стаж:
3 месяца 12 дней
Сообщений:
612

Танцы насмерть «Танцуй или умри!»- Жанр: Фантастика
Год выпуска: 2017
Продолжительность: 01:38:24-Режиссёр: Андрей Волгин-В ролях: Иван Жвакин, Лукерья Ильяшенко, Никита Волков, Агния Дитковските, Денис Шведов, Александр Тютин, Ола Кейру, Ульяна Куликова, Виктор Хоркин, Евгений Михеев, Карина Иванова-Описание: 2070 год. Москва. Мир лежит в руинах после ядерной войны. Выживание человечества зависит от энергии, которую отдают участники жестокого танцевального турнира. Но когда один из претендентов влюбляется в девушку, участницу состязания, и решает любой ценой спасти её жизнь, отлаженная система оказывается под угрозой.- / -Качество видео: WEB-DLRip
Формат видео: AVI
Видео: 720x304 (2.35:1), 25.000 fps, XviD build 73, 1733 Kbps, 0.31 Bits/Pixel
Аудио: 48 kHz, AC3 Dolby Digital, 3/2 (L,C,R,l,r) + LFE ch, 384 Kbps | iTunes

MediaInfo

General
Complete name : Downloads\Tancy.nasmertj.2017.WEB-DLRip
Format : AVI
Format/Info : Audio Video Interleave
File size : 1.46 GiB
Duration : 1h 38mn
Overall bit rate : 2 125 Kbps
Video #0
ID : 0
Format : MPEG-4 Visual
Format profile : Advanced Simple@L5
Format settings, BVOP : 1
Format settings, QPel : No
Format settings, GMC : No warppoints
Format settings, Matrix : Custom
Codec ID : XVID
Codec ID/Hint : XviD
Duration : 1h 38mn
Bit rate : 1 733 Kbps
Width : 720 pixels
Height : 304 pixels
Display aspect ratio : 2.35:1
Frame rate : 25.000 fps
Color space : YUV
Chroma subsampling : 4:2:0
Bit depth : 8 bits
Scan type : Progressive
Compression mode : Lossy
Bits/(Pixel*Frame) : 0.317
Stream size : 1.19 GiB (82%)
Writing library : XviD 73
Audio #1
ID : 1
Format : AC-3
Format/Info : Audio Coding 3
Mode extension : CM (complete main)
Format settings, Endianness : Big
Codec ID : 2000
Duration : 1h 38mn
Bit rate mode : Constant
Bit rate : 384 Kbps
Channel(s) : 6 channels
Channel positions : Front: L C R, Side: L R, LFE
Sampling rate : 48.0 KHz
Bit depth : 16 bits
Compression mode : Lossy
Stream size : 270 MiB (18%)
Alignment : Aligned on interleaves
Interleave, duration : 64 ms (1.60 video frames)
Interleave, preload duration : 192 ms
Title : iTunes

Скриншот c названием фильма

Скриншоты

[cybertorrent.ru].t287.torrent 
Торрент: Зарегистрирован [ 2018-02-15 15:34 ] · 93FF490DB67DA851777F83E3125EB025A287C52B

Скачать .torrent

Скачать

15 KB

Статус: проверено
Скачан: 0 раз
Размер: 1,46 GB
Профиль [ЛС]
Показать сообщения:    

Текущее время: 28-Май 03:19

Часовой пояс: UTC ± 0



Вы не можете начинать темы
Вы не можете отвечать на сообщения
Вы не можете редактировать свои сообщения
Вы не можете удалять свои сообщения
Вы не можете голосовать в опросах
Вы не можете прикреплять файлы к сообщениям
Вы можете скачивать файлы