Статистика раздачи
Размер:  55,83 GB   |    Зарегистрирован:  6 месяцев   |    Скачан:  0 раз

Полного источника не было: Никогда

 
   
 
 

karapuz ®

Пол:
Не указан
Стаж:
6 месяцев 1 день
Сообщений:
128

Скуби-Ду Шоу / The Scooby-Doo Show
Страна: США
Жанр: Ужасы, Детектив, Комедия
Продолжительность серии: ~24мин
Год выпуска: 1976
Перевод:
  • Профессиональный (дублированный) - Пифагор по заказу Warner Bros., 2011 год
  • Профессиональный (дублированный) - Пифагор, 2006 год
  • Профессиональный (дублированный) - СВ-Дубль по заказу СТС, 2000-2001 год
  • Профессиональный (дублированный) - НТВ, 1996 год
  • Профессиональный (дублированный) - Ракурс по заказу Екатеринбург Арт Home Video, 1997 год
  • Профессиональный (многоголосый закадровый) - CP Дистрибуция, 2013 год
  • Профессиональный (многоголосый закадровый) - Интер-Фильм
    Субтитры: русские |Rus|, английские-Режиссёр: Уильям Ханна, Джозеф Барбера / William Hanna, Joseph Barbera
    Описание: Очаровательный и смешной пес по кличке Скуби Ду вместе со своим хозяином Шеги и друзьями: Вельмой, Дафни и Фредди постоянно попадают в удивительные приключения. Они расследуют мистические случаи похищения людей и собак, связанные с призраками, заброшенными замками и затерянными сокровищами. И не смотря на то, что Скуби Ду ужасно боится привидений, и думает исключительно о сухариках и собачьих консервах, он всегда оказывается победителем и успешно распутывает все эти загадочные происшествия.

    Список серий и наличие переводов:

    Сезон 1:
    01 High Rise Hair Raiser СВ-Дубль НТВ .
    02 The Fiesta Host is an Aztec Ghost Пифагор СВ-Дубль НТВ Rus.
    03 The Gruesome Game of the Gator Ghoul Пифагор СВ-Дубль НТВ .
    04 Watt a Shocking Ghost СВ-Дубль НТВ .
    05 The Headless Horseman of Halloween СВ-Дубль НТВ .
    06 Scared a Lot in Camelot Пифагор Пифагор СВ-Дубль Ракурс CP Дистр. Rus.
    07 The Harum Scarum Sanitarium Пифагор СВ-Дубль Rus.
    08 The No-Faced Zombie Chase Case СВ-Дубль .
    09 Mamba Wamba and the Voodoo Hoodoo Пифагор СВ-Дубль .
    10 A Frightened Hound Meets Demons Underground СВ-Дубль НТВ .
    11 A Bum Steer for Scoob Пифагор СВ-Дубль .
    12 There's a Demon Shark in the Foggy Dark СВ-Дубль .
    13 Scooby-Doo, Where's the Crew? Пифагор СВ-Дубль .
    14 The Ghost that Sacked the Quarterback Пифагор СВ-Дубль .
    15 The Ghost of the Bad Humor Man СВ-Дубль НТВ .
    16 The Spirits of 76 СВ-Дубль Rus.

    Сезон 2:
    01 The Curse of Viking Lake Пифагор СВ-Дубль НТВ .
    02 Vampire Bats and Scaredy Cats Пифагор СВ-Дубль Интер-Фильм Rus.
    03 Hang in There, Scooby-Doo Пифагор СВ-Дубль CP Дистр. Rus.
    04 The Chiller Diller Movie Thriller Пифагор СВ-Дубль .
    05 The Spooky Case of the Grand Prix Race Пифагор СВ-Дубль Ракурс .
    06 The Ozark Witch Switch СВ-Дубль Rus.
    07 The Creepy Heap from the Deep Пифагор СВ-Дубль .
    08 Creepy Cruise Пифагор СВ-Дубль Ракурс .
    Предыдущие и альтернативные раздачи-

    Дополнительная информация:

  • Раздача представляет собой полные первый и второй сезоны мультсериала в наилучшем качестве видео и с максимально возможным набором аудиодорожек и субтитров.
  • Видео - прямой неперекодированный поток с Amazon UK. За исходник спасибо FoxKID.
  • Аудио №1 - DVB c Cartoon Network. За исходники спасибо afedrenkv.
  • Аудио №2 - с DVD R5 от Universal Pictures Rus: "Скуби-Ду! Динамит". За исходники спасибо melyan.
  • Аудио №3 (для первого сезона) - с DVD R5 от Universal Pictures Rus: "Скуби-Ду! Динамит". За исходники спасибо melyan.
  • Аудио №3 (для второго сезона) - DVB c СТС. За исходники спасибо DARKAN.
  • Аудио №4 - оцифровки записанного на VHS эфира телеканала НТВ. За исходники спасибо zevvvs.
  • Аудио №5 - оцифровки с видеокассет от Екатеринбург Арт: "Скуби-Ду и Гонки Гран-При", "Скуби-Ду Едет в Голливуд". За исходники спасибо ALEKS KV, RoxMarty, Sveners.
  • Аудио №6 и русские субтитры - с DVD R5 от СР-Дистрибуция: "Скуби-Ду! и Вампиры", "Скуби-Ду! 13 Страшных Историй - В Погоне за Пугалом", "Скуби-Ду! 13 Страшных Историй (Around the World)". DVD из личной коллекции.
  • Аудио №7 - оцифровка с видеокассеты Интер-Фильм: "Страшилки Скуби-Ду". Исходник найден в сети.
  • За синхронизацию всего и вся спасибо мне - yaroslav230596.
  • В DVB с СТС некоторые сцены в некоторых сериях имеют несколько иную (более старую) рисовку и аудиоряд, нежели во всех других имеющихся источниках (особенно заметно в сериях 2x01,02).
  • В озвучке СВ-Дубль к сериям 1x06-07 неправильно наложен дубляж. Речь синхронна видеоряду, а все прочие звуки нет. Поэтому при выпуске этих серий на DVD этот дубляж не использовался, и серии были заново переозвучены.
  • -Качество: AMZN Web-DL 1080p
    Формат: MKV
    Видео: MPEG-4 AVC | 1440x1080 | 23.976 fps | ~ 14000 kbps
    Аудио 1: RUS | AC-3 | 48.0 KHz | 2 ch | 192 kbps | Dub "Пифагор" | 1x02-03,06,09,11,13-14; 2x01-05,07-08
    Аудио 2: RUS | AC-3 | 48.0 KHz | 2 ch | 192 kbps | Dub "Пифагор" | 1x06-07
    Аудио 3: RUS | AC-3 | 48.0 KHz | 2 ch | 192 kbps | Dub "СВ-Дубль" | 1x01-16; 2x01-08
    Аудио 4: RUS | AC-3 | 48.0 KHz | 2 ch | 192 kbps | Dub "НТВ" | 1x01-05,10,15; 2x01
    Аудио 5: RUS | AC-3 | 48.0 KHz | 2 ch | 192 kbps | Dub "Ракурс" | 1x06; 2x05,08
    Аудио 6: RUS | AC-3 | 48.0 KHz | 2 ch | 192 kbps | MVO "CP Дистрибуция" | 1x06; 2x03
    Аудио 7: RUS | AC-3 | 48.0 KHz | 2 ch | 192 kbps | MVO "Интер-Фильм" | 2x02
    Аудио 8: ENG | E-AC-3 | 48.0 KHz | 2 ch | 224 kbps
    Субтитры 1: RUS | SRT | UTF-8 | 1x02, 06-07, 16; 2x02-03, 06
    Субтитры 2: ENG | SRT | UTF-8
    Семпл

    Подробные технические данные

    Format : Matroska
    Format version : Version 4 / Version 2
    File size : 2.55 GiB
    Duration : 24 min
    Overall bit rate mode : Variable
    Overall bit rate : 15.0 Mb/s
    Movie name : 1x03 - The Gruesome Game of the Gator Ghoul
    Encoded date : UTC 2016-10-20 14:19:25
    Writing application : mkvmerge v9.4.0 ('Knurl') 64bit
    Writing library : libebml v1.3.4 + libmatroska v1.4.5
    Video
    ID : 1
    Format : AVC
    Format/Info : Advanced Video Codec
    Format profile : High@L4
    Format settings, CABAC : Yes
    Format settings, ReFrames : 4 frames
    Codec ID : V_MPEG4/ISO/AVC
    Duration : 24 min
    Bit rate mode : Variable
    Bit rate : 14.3 Mb/s
    Maximum bit rate : 15.0 Mb/s
    Width : 1 440 pixels
    Height : 1 080 pixels
    Display aspect ratio : 4:3
    Frame rate mode : Constant
    Frame rate : 23.976 (24000/1001) FPS
    Color space : YUV
    Chroma subsampling : 4:2:0
    Bit depth : 8 bits
    Scan type : Progressive
    Bits/(Pixel*Frame) : 0.383
    Stream size : 2.41 GiB (95%)
    Title : FoxKID
    Writing library : x264 core 148 r2623 d5b2374
    Encoding settings : cabac=1 / ref=4 / deblock=1:-1:-1 / analyse=0x3:0x133 / me=umh / subme=9 / psy=1 / psy_rd=1.00:0.15 / mixed_ref=1 / me_range=24 / chroma_me=1 / trellis=2 / 8x8dct=1 / cqm=0 / deadzone=21,11 / fast_pskip=1 / chroma_qp_offset=-3 / threads=34 / lookahead_threads=5 / sliced_threads=0 / nr=150 / decimate=1 / interlaced=0 / bluray_compat=0 / constrained_intra=0 / bframes=8 / b_pyramid=2 / b_adapt=2 / b_bias=0 / direct=3 / weightb=1 / open_gop=0 / weightp=2 / keyint=120 / keyint_min=61 / scenecut=0 / intra_refresh=0 / rc_lookahead=120 / rc=crf / mbtree=1 / crf=18.0 / qcomp=0.60 / qpmin=0 / qpmax=69 / qpstep=4 / vbv_maxrate=15000 / vbv_bufsize=31250 / crf_max=0.0 / nal_hrd=vbr / filler=0 / ip_ratio=1.40 / aq=3:1.00
    Language : English
    Default : Yes
    Forced : No
    Color range : Limited
    Color primaries : BT.709
    Transfer characteristics : BT.709
    Matrix coefficients : BT.709
    Audio #1
    ID : 2
    Format : AC-3
    Format/Info : Audio Coding 3
    Mode extension : CM (complete main)
    Format settings, Endianness : Big
    Codec ID : A_AC3
    Duration : 24 min
    Bit rate mode : Constant
    Bit rate : 192 kb/s
    Channel(s) : 2 channels
    Channel positions : Front: L R
    Sampling rate : 48.0 kHz
    Frame rate : 31.250 FPS (1536 spf)
    Compression mode : Lossy
    Stream size : 33.2 MiB (1%)
    Title : Dub "Пифагор" 2011
    Language : Russian
    Default : Yes
    Forced : No
    Audio #2
    ID : 3
    Format : AC-3
    Format/Info : Audio Coding 3
    Mode extension : CM (complete main)
    Format settings, Endianness : Big
    Codec ID : A_AC3
    Duration : 24 min
    Bit rate mode : Constant
    Bit rate : 192 kb/s
    Channel(s) : 2 channels
    Channel positions : Front: L R
    Sampling rate : 48.0 kHz
    Frame rate : 31.250 FPS (1536 spf)
    Compression mode : Lossy
    Stream size : 33.3 MiB (1%)
    Title : Dub "СВ-Дубль" 2000
    Language : Russian
    Default : No
    Forced : No
    Audio #3
    ID : 4
    Format : AC-3
    Format/Info : Audio Coding 3
    Mode extension : CM (complete main)
    Format settings, Endianness : Big
    Codec ID : A_AC3
    Duration : 24 min
    Bit rate mode : Constant
    Bit rate : 192 kb/s
    Channel(s) : 2 channels
    Channel positions : Front: L R
    Sampling rate : 48.0 kHz
    Frame rate : 31.250 FPS (1536 spf)
    Compression mode : Lossy
    Stream size : 33.2 MiB (1%)
    Title : Dub "НТВ" 1996
    Language : Russian
    Default : No
    Forced : No
    Audio #4
    ID : 5
    Format : E-AC-3
    Format/Info : Audio Coding 3
    Format settings, Endianness : Big
    Codec ID : A_EAC3
    Duration : 24 min
    Bit rate mode : Constant
    Bit rate : 224 kb/s
    Channel(s) : 2 channels
    Channel positions : Front: L R
    Sampling rate : 48.0 kHz
    Frame rate : 187.500 FPS (256 spf)
    Compression mode : Lossy
    Stream size : 38.7 MiB (1%)
    Language : English
    Default : No
    Forced : No
    Text
    ID : 6
    Format : UTF-8
    Codec ID : S_TEXT/UTF8
    Codec ID/Info : UTF-8 Plain Text
    Duration : 23 min
    Bit rate : 83 b/s
    Count of elements : 391
    Stream size : 14.3 KiB (0%)
    Language : English
    Default : No
    Forced : No
    [cybertorrent.ru].t2871.torrent 
    Торрент: Зарегистрирован [ 2018-02-16 14:35 ] · C2B960C0EDBC8D88EFE1C744CF5C681143B16FC5

    Скачать .torrent

    Скачать

    283 KB

    Статус: проверено
    Скачан: 0 раз
    Размер: 55,83 GB
    Профиль [ЛС]
    Показать сообщения:    

    Текущее время: 17-Авг 09:18

    Часовой пояс: UTC ± 0



    Вы не можете начинать темы
    Вы не можете отвечать на сообщения
    Вы не можете редактировать свои сообщения
    Вы не можете удалять свои сообщения
    Вы не можете голосовать в опросах
    Вы не можете прикреплять файлы к сообщениям
    Вы можете скачивать файлы
    Torrents24.ru открытый BitTorrent Torrents24.pl открытый BitTorrent CyberTorrent.ru открытый BitTorrent BtList.ru рейтинг BitTorrent трекеров Яндекс.Метрика