BitTorrent клиенты



Вор (Павел Чухрай) [1997, Россия, Франция, драма, DVD9] Original Rus

Ответить на тему
 
Автор Сообщение

Ангел ®

Пол: Не указан

Стаж: 1 год

Сообщений: 954

Создавать темы 08-Фев-2018 15:46

[Цитировать]

Вор
Страна: Россия, Франция
Жанр: драма
Год выпуска: 1997
Продолжительность: 01:33:46
Перевод: Не требуется
Субтитры: русские
Оригинальная аудиодорожка: русская
Режиссер: Павел Чухрай
В ролях: Владимир Машков, Екатерина Редникова, Михаил Филипчук, Амалия Мордвинова, Лидия Савченко, Анна Штукатурова, Ольга Пашкова, Юрий Беляев, Анатолий Кощеев, Людмила Селянская
Описание: Осенью 1952 года шестилетний Санька и его молодая мама знакомятся в поезде с красавцем военным по имени Толян. Катя влюбляется в Толяна, и все вместе они начинают жить одной семьей. Но на поверку этот бравый и обаятельный офицер оказывается вовсе не отставным военным, а профессиональным вором…
Меню: есть, анимированное, озвученное
Тип релиза: DVD9
Контейнер: DVD-Video
Видео: PAL 4:3 (720x576(0.675)) MPEG Video, 25,000 кадр/сек, 7000 Кбит/сек
Аудио: Russian (Dolby AC-3, 6ch) 448 Кбит/сек, 48.0 КГц
Аудио 2: Russian (DTS, 6ch) 1536 Кбит/сек, 48.0 КГц

Доп. информация

Номинация на премию "Оскар" (за 1997 год) в категории "Лучший фильм на иностранном языке"
Номинация на премию Ассоциации иностранной прессы Голливуда "Золотой Глобус" (за 1997 год) в категории "Лучший фильм на иностранном языке"
Номинация на премию "Феликс" (за 1997 год) в категории "Лучший европейский фильм"
Специальный приз жюри - Золотая медаль Сената Итальянской Республики, приз ЮНИСЕФ (детского Фонда ООН), Приз международного молодежного жюри

Доп. информация по релизу

Меню запускается только принудительно!

MediaInfo

Общее
Полное имя : VOR[torrents.ru]\VIDEO_TS\VTS_01_1.VOB
Формат : MPEG-PS
Размер файла : 1024 Мбайт
Продолжительность : 15 м. 42 с.
Режим общего битрейта : Постоянный
Общий поток : 9116 Кбит/сек
Видео
Идентификатор : 224 (0xE0)
Формат : MPEG Video
Версия формата : Version 2
Профиль формата : Main@Main
Параметр BVOP формата : Да
Параметр матрицы формата : Выборочная
Параметр GOP формата : M=3, N=15
Структура изображения : Frame
Продолжительность : 15 м. 42 с.
Вид битрейта : Постоянный
Битрейт : 7000 Кбит/сек
Ширина : 720 пикселей
Высота : 576 пикселей
Соотношение сторон : 4:3
Частота кадров : 25,000 кадров/сек
Стандарт вещания : PAL
Цветовое пространство : YUV
Субдискретизация насыщенности : 4:2:0
Битовая глубина : 8 бит
Тип развёртки : Чересстрочная
Порядок развёртки : Верхнее поле первое
Метод сжатия : С потерями
Бит/(Пиксели*Кадры) : 0.675
Временной код первого кадра : 00:00:00:00
Оригинал временного кода : Group of pictures header
GOP, открыто/закрыто : Закрыто
Размер потока : 783 Мбайт (77%)
Аудио #1
Идентификатор : 189 (0xBD)-128 (0x80)
Формат : AC-3
Формат/Информация : Audio Coding 3
Параметр Endianness формата : Big
Режим смешивания : DVD-Video
Продолжительность : 15 м. 41 с.
Вид битрейта : Постоянный
Битрейт : 448 Кбит/сек
Каналы : 6 каналов
Расположение каналов : Front: L C R, Side: L R, LFE
Частота : 48,0 КГц
Частота кадров : 31,250 кадров/сек (1536 spf)
Битовая глубина : 16 бит
Метод сжатия : С потерями
Размер потока : 50,3 Мбайт (5%)
ServiceKind/String : Complete Main
Аудио #2
Идентификатор : 189 (0xBD)-137 (0x89)
Формат : DTS
Формат/Информация : Digital Theater Systems
Режим : 16
Параметр Endianness формата : Big
Режим смешивания : DVD-Video
Продолжительность : 15 м. 41 с.
Вид битрейта : Постоянный
Битрейт : 1510 Кбит/сек
Каналы : 6 каналов
Расположение каналов : Front: L C R, Side: L R, LFE
Частота : 48,0 КГц
Частота кадров : 93,750 кадра/сек (512 spf)
Битовая глубина : 24 бит
Метод сжатия : С потерями
Размер потока : 169 Мбайт (17%)

Скриншоты меню

Скриншоты

[Профиль] [ЛС]
Показать сообщения:    
Ответить на тему

Текущее время: 20-Фев 00:55

Часовой пояс: UTC + 3



Вы не можете начинать темы
Вы не можете отвечать на сообщения
Вы не можете редактировать свои сообщения
Вы не можете удалять свои сообщения
Вы не можете голосовать в опросах
Вы не можете прикреплять файлы к сообщениям
Вы можете скачивать файлы