Статистика раздачи
Размер:  1,46 GB   |    Зарегистрирован:  3 месяца 12 дней   |    Скачан:  0 раз

Полного источника не было: Никогда

 
   
 
 

lopster ®

Пол:
Не указан
Стаж:
3 месяца 12 дней
Сообщений:
612

Мой убийца
«Преступление должно быть раскрыто»- Жанр: Детектив, триллер
Год выпуска: 2016
Продолжительность: 01:43:00-Режиссёр: Костас Марсан-В ролях: Вячеслав Лавернов, Галина Тихонова, Федот Львов, Степан Федоренко, Илья Яковлев, Дьулустан Семенов, Прокопий Данилов, Дмитрий Алексеев, Иван Мишагин, Дмитрий Трофимов-Описание: Молодой оперативник Джулус расследует убийство девушки. Вскоре он находит подозреваемого, который признается в преступлении. Вроде бы справедливость восторжествовала, дело закрыто, но Джулус замечает странности и нестыковки в расследовании. Главный герой, несмотря на неодобрение начальства, решает подробнее разобраться в этом деле. Цепочка событий приводит его в поселение золотодобытчиков, где наружу всплывают новые тайны погибшей девушки…- / -Качество видео: WEB-DLRip
Формат видео: AVI
Видео: 720x304 (2.35:1), 25.000 fps, XviD build 73, 1833 Kbps, 0.33 Bits/Pixel
Аудио: 48 kHz, AC3 Dolby Digital, 2 ch, 192 Kbps

Знаете ли вы, что...

Фильм снят по мотивам повести выдающегося якутского писателя Егора Неймохова «Случай на озере Сайсары».
Название фильма на якутском языке — «Сайсары Куөлгэ», что в переводе означает «У озера Сайсары.»
К съемочному процессу, в качестве консультантов, были привлечены оперативники, участвовавшие в раскрытии реального преступления, совершенного в Якутске в 1970-е годы.
В легшей в основу сценария повести события происходят в 70-е годы прошлого века, а в фильме действие перенесено в наши дни.
В картине использованы документальные кадры процесса золотодобычи.
Для съемок в этом фильме исполнитель главной роли Вячеслав Лавернов за 9 дней сбросил 11 килограмм.

MediaInfo

General
Complete name : Downloads\Мой убийца.2016.XviD
Format : AVI
Format/Info : Audio Video Interleave
File size : 1.46 GiB
Duration : 1h 43mn
Overall bit rate : 2 033 Kbps
Video #0
ID : 0
Format : MPEG-4 Visual
Format profile : Advanced Simple@L5
Format settings, BVOP : 1
Format settings, QPel : No
Format settings, GMC : No warppoints
Format settings, Matrix : Custom
Codec ID : XVID
Codec ID/Hint : XviD
Duration : 1h 43mn
Bit rate : 1 833 Kbps
Width : 720 pixels
Height : 304 pixels
Display aspect ratio : 2.35:1
Frame rate : 25.000 fps
Color space : YUV
Chroma subsampling : 4:2:0
Bit depth : 8 bits
Scan type : Progressive
Compression mode : Lossy
Bits/(Pixel*Frame) : 0.335
Stream size : 1.32 GiB (90%)
Writing library : XviD 73
Audio #1
ID : 1
Format : AC-3
Format/Info : Audio Coding 3
Mode extension : CM (complete main)
Format settings, Endianness : Big
Codec ID : 2000
Duration : 1h 43mn
Bit rate mode : Constant
Bit rate : 192 Kbps
Channel(s) : 2 channels
Channel positions : Front: L R
Sampling rate : 48.0 KHz
Bit depth : 16 bits
Compression mode : Lossy
Stream size : 141 MiB (9%)
Alignment : Aligned on interleaves
Interleave, duration : 64 ms (1.60 video frames)
Interleave, preload duration : 192 ms
Title : Rus

Скриншот c названием фильма

Скриншоты


-
Сообщения из этой темы [48 шт.] были выделены в отдельную тему Выделено из: Мой убийца (Костас Марсан) [2016, Детектив, триллер, WEB-DLRip] [5396408]
xfiles
[cybertorrent.ru].t288.torrent 
Торрент: Зарегистрирован [ 2018-02-15 15:34 ] · 18F4A0ACB111C3023A5C4AC1776FAAF2DBBA30BA

Скачать .torrent

Скачать

15 KB

Статус: проверено
Скачан: 0 раз
Размер: 1,46 GB
Профиль [ЛС]
Показать сообщения:    

Текущее время: 28-Май 08:12

Часовой пояс: UTC ± 0



Вы не можете начинать темы
Вы не можете отвечать на сообщения
Вы не можете редактировать свои сообщения
Вы не можете удалять свои сообщения
Вы не можете голосовать в опросах
Вы не можете прикреплять файлы к сообщениям
Вы можете скачивать файлы