Статистика раздачи
Размер:  1,37 GB   |    Зарегистрирован:  3 месяца 9 дней   |    Скачан:  0 раз

Полного источника не было: Никогда

 
   
 
 

lopster ®

Пол:
Не указан
Стаж:
3 месяца 9 дней
Сообщений:
612

Пациенты
Жанр: драма
Год выпуска: 2014
Продолжительность: 01:26:56
Режиссёр: Элла Омельченко
В ролях: Павел Баршак, Тимофей Трибунцев, Марьяна Кирсанова, Дмитрий Мухамадеев
Описание: Супруг Сергей посещает психоаналитика Брюсова, который на каждом приеме внушает Шаламову мысль о том, что Сергею необходимо развестись со своей супругой. «Семья – это не главное! Главное – чего хочешь ты!» - говорит он. По мнению Брюсова жена подавляет в нём собственное «Я». Леночка же, супруга Шаламова, ходит на исповедь к священнику - отцу Сергию. Батюшка, в отличие от психоаналитика, наказывает Леночке, во что бы то ни стало сохранить семью. «Семья – это главное! Всё ради семьи!» На кроткое замечание Лены, о том, что хочется тепла и ласки, отец Сергий твёрдо говорит «Не надо оно тебе!... Все в руках Божьих! Главное сохранить семью!». Это противостояние психоаналитика и священника длится уже полтора года...
Производство: ЗАО "Лук-фильм"
Релиз: ELEKTRI4KA, реклама отсутствует
Все раздачи фильма: Пациенты

Качество видео: WEB-DLRip
Формат видео: AVI
Видео: XVID, 720х400 (1,8:1), 25 кадр/с, ~1850 Кбит/сек, 0,258 bit/pixel
Аудио: АС3, 48,0 kHz, 6 ch, 384 Кбит/с

MI

Код:Общее
Полное имя : C:\otkat\Видео\Пациенты\Pacienty.2014.O.WEB-DLRip.UNIONGANG.ELEKTRI4KA.avi
Формат : AVI
Формат/Информация : Audio Video Interleave
Размер файла : 1,37 Гбайт
Продолжительность : 1 ч. 26 м.
Общий поток : 2255 Кбит/сек
Название фильма : Pacienty.2014.O.WEB-DLRip.ELEKTRI4KA.uniongang.tv
Программа кодирования : VirtualDubMod 1.5.10.3 | www.virtualdub-fr.org || (build 2550/release)
Авторское право : UNIONGANG&RUSTORRENTS
Видео
Идентификатор : 0
Формат : MPEG-4 Visual
Профиль формата : Advanced Simple@L5
Параметр BVOP формата : 2
Параметр QPel формата : Нет
Параметр GMC формата : Без точки перехода
Параметр матрицы формата : Default (MPEG)
Режим смешивания : Сжатый битовый поток
Идентификатор кодека : XVID
Идентификатор кодека/Подсказка : XviD
Продолжительность : 1 ч. 26 м.
Битрейт : 1861 Кбит/сек
Ширина : 720 пикселей
Высота : 400 пикселей
Соотношение сторон : 16:9
Частота кадров : 25,000 кадров/сек
Цветовое пространство : YUV
Субдискретизация насыщенности : 4:2:0
Битовая глубина : 8 бит
Тип развёртки : Прогрессивная
Метод сжатия : С потерями
Бит/(Пиксели*Кадры) : 0.258
Размер потока : 1,13 Гбайт (83%)
Библиотека кодирования : XviD 73
Аудио
Идентификатор : 1
Формат : AC-3
Формат/Информация : Audio Coding 3
Расширение режима : CM (complete main)
Параметр Endianness формата : Big
Идентификатор кодека : 2000
Продолжительность : 1 ч. 26 м.
Вид битрейта : Постоянный
Битрейт : 384 Кбит/сек
Каналы : 6 каналов
Расположение каналов : Front: L C R, Side: L R, LFE
Частота : 48,0 КГц
Частота кадров : 31,250 кадров/сек (1536 spf)
Метод сжатия : С потерями
Размер потока : 239 Мбайт (17%)
Выравнивание : Разделение по промежуткам
Продолжительность промежутка : 40 мс. (1,00 видеокадр)
Время предзагрузки промежутка : 500 мс.

Скриншот с названием фильма

Скриншоты


[cybertorrent.ru].t289.torrent 
Торрент: Зарегистрирован [ 2018-02-15 15:34 ] · D211910CBCC18C97B931FA57576DBD34EB5AA6E9

Скачать .torrent

Скачать

14 KB

Статус: проверено
Скачан: 0 раз
Размер: 1,37 GB
Профиль [ЛС]
Показать сообщения:    

Текущее время: 25-Май 08:43

Часовой пояс: UTC ± 0



Вы не можете начинать темы
Вы не можете отвечать на сообщения
Вы не можете редактировать свои сообщения
Вы не можете удалять свои сообщения
Вы не можете голосовать в опросах
Вы не можете прикреплять файлы к сообщениям
Вы можете скачивать файлы