BitTorrent клиенты



(House, Downtempo, Chillout) [WEB] Various Artists — III Miracle, [Ezhevika — EZH067], 2018, FLAC (tracks), lossless

Ответить на тему
Статистика раздачи
Размер:  538 MB   |    Зарегистрирован:  11 месяцев 17 дней   |    Скачан:  0 раз

Полного источника не было: Никогда

 
   
 
 
Автор Сообщение

manan ®

Пол: Не указан

Стаж: 11 месяцев 22 дня

Сообщений: 522

Создавать темы 04-Мар-2018 22:22

[Цитировать]

Various Artists — III Miracle (2018, Ezhevika)- Жанр: Electronic
Стиль: House, Downtempo, Chillout, Techno
Носитель: WEB
Год издания: 2018
Издатель (лейбл): Ezhevika
Номер по каталогу: EZH067
Аудиокодек: FLAC (*.flac)
Тип рипа: tracks
Продолжительность: 01:12:41
Источник: bandcamp
Наличие сканов в содержимом раздачи: только обложка
-Треклист:
01. Supertask - Off [04:04]
02. Ana Zhdanova - Appetiizer [04:06]
03. EIMIC - Before The Morning Comes [03:19]
04. Antrru - Carbon Pad [04:06]
05. Pensees - Murky [05:00]
06. Cortel - First Snow [04:20]
07. Shuma - Oj Ty Vetru [04:26]
08. Phil Anker - Morn. [04:16]
09. Fujee - Follow Me [03:47]
10. CherryVata - Flow [04:00]
11. Astro Raph - Got No Money [05:12]
12. Za4emmne - Analog Horse [03:28]
13. Awlnight - Guitarfill [02:16]
14. Mustelide - Nanoantenna [03:16]
15. Pleyad - Feeling [04:14]
16. SunMan24 - Spike Lee [04:04]
17. Mew19 - Zero [03:42]
18. Bronze Philosophy - Affinity [05:05]-Полезные ссылки:
MusicBrainz: Various Artists — III Miracle
Bandcamp: Various Artists — III Miracle-

Лог проверки качества

-----------------------
DON'T MODIFY THIS FILE
-----------------------
PERFORMER: auCDtect Task Manager, ver. 1.6.0 RC1 build 1.6.0.1
Copyright (c) 2008-2010 y-soft. All rights reserved
http://y-soft.org
ANALYZER: auCDtect: CD records authenticity detector, version 0.8.2
Copyright (c) 2004 Oleg Berngardt. All rights reserved.
Copyright (c) 2004 Alexander Djourik. All rights reserved.
FILE: 18. Affinity.flac
Size: 26509900 Hash: 49AFECA3DA3A8DD8E84B884F649DB97F Accuracy: -m0
Conclusion: CDDA 100%
Signature: 95BA0C1899CB66EDF8055B6AA84E466F061B2734
FILE: 16. Spike Lee.flac
Size: 25029238 Hash: 45C03928E25C848ED3847F0DE82C6DE1 Accuracy: -m0
Conclusion: CDDA 100%
Signature: D1088BFB5A20C31989E5E1369118A30A49F355AA
FILE: 15. Feeling.flac
Size: 31206884 Hash: E3FF204EC69E7ED68DF30E1575AF75DB Accuracy: -m0
Conclusion: CDDA 100%
Signature: E3E1626E985F43280F894434001C15C441E2DC2B
FILE: 14. Nanoantenna.flac
Size: 22563565 Hash: F7BCFEA2C74F377078039315EAABB3DA Accuracy: -m0
Conclusion: CDDA 100%
Signature: BF077608067A1CF91985061130F9548766641044
FILE: 13. Guitarfill.flac
Size: 17021400 Hash: C0B7AA3B3B29922D79DEBAC6390BF4EF Accuracy: -m0
Conclusion: CDDA 100%
Signature: F1E95925316F6074DB19B0A197BFE37CC21C6933
FILE: 12. Analog Horse.flac
Size: 23547465 Hash: F369E5C020E6A2D2F01976523D4A985F Accuracy: -m0
Conclusion: CDDA 100%
Signature: 0C9AF4367BC93334C9687EE1C7F3E26F31CB4678
FILE: 11. Got No Money.flac
Size: 35021880 Hash: E5974D8A9D6A2577E43B54D4FECBCF98 Accuracy: -m0
Conclusion: CDDA 100%
Signature: 9470525598021354A2CA6335BCB7AEA7CFD01491
FILE: 10. Flow.flac
Size: 26404995 Hash: B0FD595D4B3DA2E0AF0BA0E158FCB6FB Accuracy: -m0
Conclusion: CDDA 100%
Signature: 0ACFB16B3C76EBA06B6C07712C16AA8AD62FB0AD
FILE: 09. Follow Me.flac
Size: 26891495 Hash: A8E74666CF2C03567532EF568422F3F9 Accuracy: -m0
Conclusion: CDDA 100%
Signature: 2AB8097B4403EC2F3125E28F1D7A4C6242DEB662
FILE: 08. Morn..flac
Size: 24728425 Hash: 0C140C324B0999CF0A329DDED1125207 Accuracy: -m0
Conclusion: CDDA 99%
Signature: 03C984A45B0160B281A9C15E9BD444CAD39FD63D
FILE: 07. Oj Ty Vetru.flac
Size: 22804773 Hash: E5354018C3613040C476DF28DE6D2600 Accuracy: -m0
Conclusion: MPEG 99%
Signature: 2AF07DEA20B96CF3170B9292D550D6D95F4612C0
FILE: 05. Murky.flac
Size: 30623260 Hash: 045229DEB2C53E436A0845AF48CC76C2 Accuracy: -m0
Conclusion: MPEG 95%
Signature: E2C13CE9A3401FF51745EA011FE390CFDEA56F0F
FILE: 03. Before The Morning Comes.flac
Size: 24550393 Hash: A99C28586610BD05FC49007C755F2BDB Accuracy: -m0
Conclusion: CDDA 100%
Signature: 69653E7B883C3F359E429E023A33FE8EE1FBD613
FILE: 02. Appetiizer.flac
Size: 23016296 Hash: EA652C3FC914839AC20D634EE5B85CD6 Accuracy: -m0
Conclusion: CDDA 100%
Signature: A9ED4CF13167DC5B6EF3B94AE68CB6E3DA709B4D

Скриншот спектра частот


















Замер динамического диапазона (DRM)

foobar2000 1.3.17 / Dynamic Range Meter 1.1.1
log date: 2018-02-27 20:12:57
--------------------------------------------------------------------------------
Analyzed: Ana Zhdanova / III Miracle (1)
Astro Raph / III Miracle (2)
Awlnight / III Miracle (3)
Bronze Philosophy / III Miracle (4)
CherryVata / III Miracle (5)
EIMIC / III Miracle (6)
Fujee / III Miracle (7)
--------------------------------------------------------------------------------
DR Peak RMS Duration Track
--------------------------------------------------------------------------------
DR8 -0.30 dB -10.50 dB 4:06 02-Appetiizer
DR9 0.00 dB -9.87 dB 5:13 11-Got No Money
DR7 0.00 dB -7.92 dB 2:16 13-Guitarfill
DR7 -0.30 dB -11.15 dB 5:05 18-Affinity
DR6 -0.30 dB -7.10 dB 4:00 10-Flow
DR6 0.00 dB -7.23 dB 3:19 03-Before The Morning Comes
DR5 -0.02 dB -6.76 dB 3:47 09-Follow Me
--------------------------------------------------------------------------------
Number of tracks: 7
Official DR value: DR7
Samplerate: 44100 Hz
Channels: 2
Bits per sample: 16
Bitrate: 938 kbps
Codec: FLAC
================================================================================
--------------------------------------------------------------------------------
Statistics for: 17-Zero
Number of samples: 9808932
Duration: 3:42
--------------------------------------------------------------------------------
Left Right
Peak Value: 0.00 dB --- 0.00 dB
Avg RMS: -7.23 dB --- -7.71 dB
DR channel: 4.05 dB --- 4.45 dB
--------------------------------------------------------------------------------
Official DR Value: DR4
Samplerate: 44100 Hz
Channels: 2
Bits per sample: 24
Bitrate: 1444 kbps
Codec: FLAC
================================================================================
--------------------------------------------------------------------------------
Analyzed: Mustelide / III Miracle (1)
Pensees / III Miracle (2)
Phil Anker / III Miracle (3)
Pleyad / III Miracle (4)
SunMan24 / III Miracle (5)
--------------------------------------------------------------------------------
DR Peak RMS Duration Track
--------------------------------------------------------------------------------
DR5 0.00 dB -7.00 dB 3:16 14-Nanoantenna
DR5 0.00 dB -7.81 dB 5:01 05-Murky
DR8 -0.10 dB -9.77 dB 4:16 08-Morn.
DR6 -0.16 dB -9.24 dB 4:15 15-Feeling
DR12 0.00 dB -14.42 dB 4:04 16-Spike Lee
--------------------------------------------------------------------------------
Number of tracks: 5
Official DR value: DR7
Samplerate: 44100 Hz
Channels: 2
Bits per sample: 16
Bitrate: 812 kbps
Codec: FLAC
================================================================================
--------------------------------------------------------------------------------
Statistics for: 01-Off
Number of samples: 10769220
Duration: 4:04
--------------------------------------------------------------------------------
Left Right
Peak Value: -0.01 dB --- -0.01 dB
Avg RMS: -6.06 dB --- -6.08 dB
DR channel: 4.49 dB --- 4.49 dB
--------------------------------------------------------------------------------
Official DR Value: DR4
Samplerate: 44100 Hz
Channels: 2
Bits per sample: 24
Bitrate: 1502 kbps
Codec: FLAC
================================================================================
--------------------------------------------------------------------------------
Statistics for: 12-Analog Horse
Number of samples: 9188385
Duration: 3:28
--------------------------------------------------------------------------------
Left Right
Peak Value: -1.97 dB --- -1.97 dB
Avg RMS: -8.85 dB --- -8.76 dB
DR channel: 5.64 dB --- 5.66 dB
--------------------------------------------------------------------------------
Official DR Value: DR6
Samplerate: 44100 Hz
Channels: 2
Bits per sample: 16
Bitrate: 894 kbps
Codec: FLAC
================================================================================
--------------------------------------------------------------------------------
Analyzed: Antrru / III Miracle (1)
Cortel / III Miracle (2)
--------------------------------------------------------------------------------
DR Peak RMS Duration Track
--------------------------------------------------------------------------------
DR7 -0.30 dB -8.58 dB 4:06 04-Carbon Pad
DR5 0.00 dB -6.39 dB 4:20 06-First Snow
--------------------------------------------------------------------------------
Number of tracks: 2
Official DR value: DR6
Samplerate: 48000 Hz
Channels: 2
Bits per sample: 24
Bitrate: 1703 kbps
Codec: FLAC
================================================================================
--------------------------------------------------------------------------------
Statistics for: 07-Oj Ty Vetru
Number of samples: 12774653
Duration: 4:26
--------------------------------------------------------------------------------
Left Right
Peak Value: 0.00 dB --- 0.00 dB
Avg RMS: -11.54 dB --- -11.50 dB
DR channel: 8.68 dB --- 8.95 dB
--------------------------------------------------------------------------------
Official DR Value: DR9
Samplerate: 48000 Hz
Channels: 2
Bits per sample: 16
Bitrate: 678 kbps
Codec: FLAC
================================================================================
[cybertorrent.ru].t28969.torrent 
Торрент: Зарегистрирован [ 2018-03-04 22:25 ] · 361D771EC83BA9CC18697FAA4F94EB76A052583F

Скачать .torrent

Скачать

12 KB

Статус: проверено
Скачан: 0 раз
Размер: 538 MB
terms.php
[Профиль] [ЛС]
Показать сообщения:    
Ответить на тему

Текущее время: 22-Фев 03:28

Часовой пояс: UTC + 3



Вы не можете начинать темы
Вы не можете отвечать на сообщения
Вы не можете редактировать свои сообщения
Вы не можете удалять свои сообщения
Вы не можете голосовать в опросах
Вы не можете прикреплять файлы к сообщениям
Вы можете скачивать файлы