Статистика раздачи
Размер:  745 MB   |    Зарегистрирован:  3 месяца 12 дней   |    Скачан:  0 раз

Полного источника не было: Никогда

 
   
 
 

lopster ®

Пол:
Не указан
Стаж:
3 месяца 12 дней
Сообщений:
612

Танцы насмерть
Жанр: Фантастика
Год выпуска: 2017
Продолжительность: 01:38:24
Субтитры: нет-Режиссер:
Андрей Волгин-В ролях:
Иван Жвакин, Лукерья Ильяшенко, Никита Волков, Агния Дитковските, Денис Шведов, Александр Тютин, Ола Кейру, Ульяна Куликова, Виктор Хоркин, Евгений Михеев, Карина Иванова-Описание:
2070 год. Москва. Мир лежит в руинах после ядерной войны. Выживание человечества зависит от энергии, которую отдают участники жестокого танцевального турнира. Но когда один из претендентов влюбляется в девушку, участницу состязания, и решает любой ценой спасти её жизнь, отлаженная система оказывается под угрозой.-Качество видео: WEB-DLRip
Формат видео: AVI
Видео: 688x288 (2.39:1), 25 fps, XviD build 73 ~920 kbps avg, 0.19 bit/pixel
Аудио: 48 kHz, MPEG Layer 3, 2 ch, ~128.00 kbps avg-Скачать сэмпл-

MediaInfo

Код:Format : AVI
Format/Info : Audio Video Interleave
File size : 745 MiB
Duration : 1 h 38 min
Overall bit rate : 1 058 kb/s
Writing application : VirtualDubMod 1.5.10.3 | www.virtualdub-fr.org || (build 2550/release)
Writing library : VirtualDubMod build 2550/release
Video
ID : 0
Format : MPEG-4 Visual
Format profile : Advanced Simple@L5
Format settings, BVOP : 1
Format settings, QPel : No
Format settings, GMC : No warppoints
Format settings, Matrix : Custom
Codec ID : XVID
Codec ID/Hint : XviD
Duration : 1 h 38 min
Bit rate : 921 kb/s
Width : 688 pixels
Height : 288 pixels
Display aspect ratio : 2.40:1
Frame rate : 25.000 FPS
Color space : YUV
Chroma subsampling : 4:2:0
Bit depth : 8 bits
Scan type : Progressive
Compression mode : Lossy
Bits/(Pixel*Frame) : 0.186
Stream size : 648 MiB (87%)
Writing library : XviD 73
Audio
ID : 1
Format : MPEG Audio
Format version : Version 1
Format profile : Layer 3
Codec ID : 55
Codec ID/Hint : MP3
Duration : 1 h 38 min
Bit rate mode : Constant
Bit rate : 128 kb/s
Channel(s) : 2 channels
Sampling rate : 48.0 kHz
Compression mode : Lossy
Stream size : 90.1 MiB (12%)
Alignment : Aligned on interleaves
Interleave, duration : 40 ms (1.00 video frame)
Interleave, preload duratio : 504 ms
Writing library : LAME3.99r
Encoding settings : -m s -V 4 -q 2 -lowpass 17 -b 128

Скриншоты

[cybertorrent.ru].t290.torrent 
Торрент: Зарегистрирован [ 2018-02-15 15:34 ] · 251F790B9B3D1273C27F937E82EB39A908D7D471

Скачать .torrent

Скачать

15 KB

Статус: проверено
Скачан: 0 раз
Размер: 745 MB
Профиль [ЛС]
Показать сообщения:    

Текущее время: 28-Май 08:03

Часовой пояс: UTC ± 0



Вы не можете начинать темы
Вы не можете отвечать на сообщения
Вы не можете редактировать свои сообщения
Вы не можете удалять свои сообщения
Вы не можете голосовать в опросах
Вы не можете прикреплять файлы к сообщениям
Вы можете скачивать файлы