Статистика раздачи
Размер:  451 MB   |    Зарегистрирован:  7 месяцев 6 дней   |    Скачан:  0 раз

Полного источника не было: Никогда

 
   
 
 

Volga ®

Пол:
Не указан
Стаж:
7 месяцев 8 дней
Сообщений:
92

850 метров / 850 meters
Страна: Бельгия
Жанр: Комедия
Продолжительность: 00:14:46
Год выпуска: 2013
Перевод: Любительский (одноголосый закадровый) POLBOBRA FILMS
Русские субтитры: нет
Режиссёр: Юри Христиан / Joeri Christiaen
Описание: Согласно легенде для достижения многих целей нужно попытаться спасти принцессу от лап злого дракона. Из сказок известно, что существует всего один способ уничтожения дракона, который удерживает очаровательную леди в плену. Для этого нужно достать меч. Чтобы достичь этой цели рыцарю придется зайти далеко. Может это будет 850 метров…
Качество: WEB-DL
Формат: MKV
Видео: AVC,1920X810,25 FPS,4019 Кбит/сек
Аудио 1:AAC,44,1 КГц,Front: L R,123 Кбит/сек - RUS
Аудио 2:AAC,44,1 КГц,Front: L R,123 Кбит/сек - ENG
Субтитры: отсутствуют

Подробные технические данные

Format : Matroska
Format version : Version 4 / Version 2
File size : 451 MiB
Duration : 14 min 46 s
Overall bit rate : 4 268 kb/s
Encoded date : UTC 2016-11-28 15:28:16
Writing application : mkvmerge v9.2.0 ('Photograph') 64bit
Writing library : libebml v1.3.3 + libmatroska v1.4.4
Video
ID : 1
Format : AVC
Format/Info : Advanced Video Codec
Format profile : Main@L4
Format settings, CABAC : No
Format settings, ReFrames : 2 frames
Format settings, GOP : M=2, N=25
Codec ID : V_MPEG4/ISO/AVC
Duration : 14 min 46 s
Bit rate : 4 019 kb/s
Width : 1 920 pixels
Height : 810 pixels
Display aspect ratio : 2.40:1
Frame rate mode : Constant
Frame rate : 25.000 FPS
Color space : YUV
Chroma subsampling : 4:2:0
Bit depth : 8 bits
Scan type : Progressive
Bits/(Pixel*Frame) : 0.103
Stream size : 425 MiB (94%)
Language : English
Default : Yes
Forced : No
Color range : Limited
Color primaries : BT.709
Transfer characteristics : BT.709
Matrix coefficients : BT.709
Audio #1
ID : 2
Format : AAC
Format/Info : Advanced Audio Codec
Format profile : LC
Codec ID : A_AAC
Duration : 14 min 46 s
Bit rate : 123 kb/s
Channel(s) : 2 channels
Channel positions : Front: L R
Sampling rate : 44.1 kHz
Frame rate : 43.066 FPS (1024 spf)
Compression mode : Lossy
Stream size : 13.0 MiB (3%)
Language : English
Default : No
Forced : No
Audio #2
ID : 3
Format : AAC
Format/Info : Advanced Audio Codec
Format profile : LC
Codec ID : A_AAC
Duration : 14 min 46 s
Bit rate : 123 kb/s
Channel(s) : 2 channels
Channel positions : Front: L R
Sampling rate : 44.1 kHz
Frame rate : 43.066 FPS (1024 spf)
Compression mode : Lossy
Stream size : 13.0 MiB (3%)
Title : PolBobra Films
Language : Russian
Default : Yes
Forced : No

Скриншоты

[cybertorrent.ru].t2913.torrent 
Торрент: Зарегистрирован [ 2018-02-16 14:35 ] · D7F75B25C3C532908A9DF65C4E35A065C7699FAE

Скачать .torrent

Скачать

18 KB

Статус: проверено
Скачан: 0 раз
Размер: 451 MB
Профиль [ЛС]
Показать сообщения:    

Текущее время: 23-Сен 11:51

Часовой пояс: UTC ± 0



Вы не можете начинать темы
Вы не можете отвечать на сообщения
Вы не можете редактировать свои сообщения
Вы не можете удалять свои сообщения
Вы не можете голосовать в опросах
Вы не можете прикреплять файлы к сообщениям
Вы можете скачивать файлы
Torrents24.ru открытый BitTorrent Torrents24.pl открытый BitTorrent CyberTorrent.ru открытый BitTorrent BtList.ru рейтинг BitTorrent трекеров Яндекс.Метрика