Статистика раздачи
Размер:  1,82 GB   |    Зарегистрирован:  3 месяца 12 дней   |    Скачан:  0 раз

Полного источника не было: Никогда

 
   
 
 

lopster ®

Пол:
Не указан
Стаж:
3 месяца 12 дней
Сообщений:
612

В июне 41-го
Жанр: Боевик, драма, мелодрама, военный
Год выпуска: 2003
Продолжительность: 01:27:09
Режиссёр: Михаил Пташук
В ролях: Марина Голуб, Юрий Колокольников, Павел Константинов, Яна Лия, Яков Явно, Нора Зеетнер, Анатолий Кот, Оксана Лесная, Виталий Быков, Александр Тимошкин
Описание:
Драматическая любовная история разворачивается на фоне первых дней Второй Мировой войны. 20-летняя американка Роза Ашкенази приезжает в маленькую белорусскую деревушку, родину ее родителей. Она хочет собрать музыкальный материал для бродвейского мюзикла.
Девушка появляется в Ждановичах 20 июня 1941 года. Через два дня нацистские войска, начавшие наступление на Советский Союз, сгоняют все население деревушки в синагогу и сжигают беспомощных людей заживо. И только Розе удается спастись. Вместе с русским офицером Иваном Антоновым, уцелевшим после гибели своего батальона, Роза пытается догнать стремительно отступающий русский фронт. Между героями вспыхивает настоящая и поэтому трагическая любовь.
Доп. информация:
Совместный русско-американский проект. В американском прокате фильм шёл под названием «Песня Розы» (The Song of Rose). Специально для российского проката фильм переименован с «Песни Розы» на «В июне 41-го».
Рип "как есть" найден в "домашней" локалке, предположительно выкачан из DC++. Оставлен в коллекции для "как не надо снимать фильмы про ВОВ".
Сэмпл: https://yadi.sk/i/Y98WvAfY3Hkx3D
Качество видео: DVDRip-AVC
Формат видео: MKV
Видео: x264, High@L5.1 profile, 720x576 (4:3) 25 fps, ~2599 kbps, 0.251 bit/pixel
Аудио: 48 kHz, AC3 Dolby Digital, 3/2 (L,C,R,l,r) + LFE ch, ~384kbps

MediaInfo

General
Unique ID : 253967266155801017210368881060654110226 (0xBF1050F79E654CA988C014439A505612)
Complete name : D:\Temp\Rip\В июне 41-го (2003).mkv
Format : Matroska
Format version : Version 2
File size : 1.82 GiB
Duration : 1h 27mn
Overall bit rate : 2 985 Kbps
Encoded date : UTC 2009-07-08 21:30:44
Writing application : mkvmerge v2.9.0 ('Moanin'') built on May 22 2009 17:46:31
Writing library : libebml v0.7.7 + libmatroska v0.8.1
Video
ID : 1
Format : AVC
Format/Info : Advanced Video Codec
Format profile : High@L5.1
Format settings, CABAC : Yes
Format settings, ReFrames : 3 frames
Codec ID : V_MPEG4/ISO/AVC
Duration : 1h 27mn
Bit rate : 2 599 Kbps
Width : 720 pixels
Height : 576 pixels
Display aspect ratio : 4:3
Frame rate mode : Constant
Frame rate : 25.000 fps
Standard : PAL
Color space : YUV
Chroma subsampling : 4:2:0
Bit depth : 8 bits
Scan type : Progressive
Bits/(Pixel*Frame) : 0.251
Stream size : 1.55 GiB (85%)
Writing library : x264 core 67 r1148 400740b
Encoding settings : cabac=1 / ref=3 / deblock=1:-2:-1 / analyse=0x3:0x133 / me=umh / subme=7 / psy_rd=1.0:0.0 / mixed_ref=1 / me_range=16 / chroma_me=1 / trellis=2 / 8x8dct=1 / cqm=0 / deadzone=21,11 / chroma_qp_offset=-2 / threads=2 / nr=0 / decimate=0 / mbaff=0 / bframes=3 / b_pyramid=1 / b_adapt=1 / b_bias=0 / direct=3 / wpredb=1 / keyint=250 / keyint_min=25 / scenecut=40 / rc=2pass / bitrate=2599 / ratetol=1.0 / qcomp=0.60 / qpmin=10 / qpmax=51 / qpstep=4 / cplxblur=20.0 / qblur=0.5 / ip_ratio=1.40 / pb_ratio=1.30 / aq=1:1.00
Default : Yes
Forced : No
Audio
ID : 2
Format : AC-3
Format/Info : Audio Coding 3
Mode extension : CM (complete main)
Format settings, Endianness : Big
Codec ID : A_AC3
Duration : 1h 27mn
Bit rate mode : Constant
Bit rate : 384 Kbps
Channel(s) : 6 channels
Channel positions : Front: L C R, Side: L R, LFE
Sampling rate : 48.0 KHz
Compression mode : Lossy
Stream size : 239 MiB (13%)
Default : Yes
Forced : No

Скриншот c названием фильма

Скриншоты

[cybertorrent.ru].t292.torrent 
Торрент: Зарегистрирован [ 2018-02-15 15:34 ] · 033467092816CF5C7358DA3B900527D60F989041

Скачать .torrent

Скачать

19 KB

Статус: проверено
Скачан: 0 раз
Размер: 1,82 GB
Профиль [ЛС]
Показать сообщения:    

Текущее время: 28-Май 08:12

Часовой пояс: UTC ± 0



Вы не можете начинать темы
Вы не можете отвечать на сообщения
Вы не можете редактировать свои сообщения
Вы не можете удалять свои сообщения
Вы не можете голосовать в опросах
Вы не можете прикреплять файлы к сообщениям
Вы можете скачивать файлы