Статистика раздачи
Размер:  1,46 GB   |    Зарегистрирован:  3 месяца 10 дней   |    Скачан:  2 раза
Сидов:  719  [  0 KB/s  ]   Личеров:  9  [  0 KB/s  ]  
 
   
 
 

lopster ®

Пол:
Не указан
Стаж:
3 месяца 11 дней
Сообщений:
612

Яна+Янко- Жанр: Семейный, комедия
Год выпуска: 2017
Продолжительность: 01:36:33
Режиссёр: Наталья Меркулова
В ролях: Олеся Судзиловская, Даниль Зинатуллин, Максим Виторган, Артур Смольянинов, Александр Ревва, Владимир Мишуков, Тинатин Далакишвили, Татьяна Клюкина
Описание: Яна Титова - весьма успешная бизнес-леди, главный редактор модного глянцевого журнала. Она считает себя самодостаточной, состоявшейся в жизни женщиной и поддерживает "чайл-фри". Яну совершенно не беспокоит, что в тридцать восемь лет у неё нет ни мужа, ни детей. Добившись популярности, Яна уверенно идёт вперед, не желая поступаться собственными принципами.
Но неожиданно над благополучием Яны сгущаются тучи, и чтобы укрепить едва не утерянные позиции, она соглашается на немыслимый шаг, решив усыновить ребенка. Яна забирает к себе из детдома маленького цыганёнка по имени Янко. Вот только Яна даже и не подозревала, чем обернётся для неё такой пиар-ход.
Сэмпл: http://multi-up.com/1153516
Качество видео: WEB-DLRip
Формат видео: AVI
Видео: 720x304 (2.35:1), 24.000 fps, XviD build 73, 1 773 Kbps, 0.33 Bits/Pixel
Аудио: 48 kHz, AC3 Dolby Digital, 3/2 (L,C,R,l,r) + LFE ch, 384 Kbps

MediaInfo

General
Complete name : Downloads\YaHa.YaHk0.2017.WEB-DLRip
Format : AVI
Format/Info : Audio Video Interleave
File size : 1.46 GiB
Duration : 1h 36mn
Overall bit rate : 2 165 Kbps
Video #0
ID : 0
Format : MPEG-4 Visual
Format profile : Advanced Simple@L5
Format settings, BVOP : 1
Format settings, QPel : No
Format settings, GMC : No warppoints
Format settings, Matrix : Custom
Codec ID : XVID
Codec ID/Hint : XviD
Duration : 1h 36mn
Bit rate : 1 773 Kbps
Width : 720 pixels
Height : 304 pixels
Display aspect ratio : 2.35:1
Frame rate : 24.000 fps
Color space : YUV
Chroma subsampling : 4:2:0
Bit depth : 8 bits
Scan type : Progressive
Compression mode : Lossy
Bits/(Pixel*Frame) : 0.337
Stream size : 1.20 GiB (82%)
Writing library : XviD 73
Audio #1
ID : 1
Format : AC-3
Format/Info : Audio Coding 3
Mode extension : CM (complete main)
Format settings, Endianness : Big
Codec ID : 2000
Duration : 1h 36mn
Bit rate mode : Constant
Bit rate : 384 Kbps
Channel(s) : 6 channels
Channel positions : Front: L C R, Side: L R, LFE
Sampling rate : 48.0 KHz
Bit depth : 16 bits
Compression mode : Lossy
Stream size : 265 MiB (18%)
Alignment : Aligned on interleaves
Interleave, duration : 64 ms (1.54 video frames)
Interleave, preload duration : 192 ms
Title : iTunes

Скриншот c названием фильма

Скриншоты

[cybertorrent.ru].t293.torrent 
Торрент: Зарегистрирован [ 2018-02-15 15:48 ] · 3CABACC26D1DAC620C956EFE2E830C6F91B02724

Скачать .torrent

Скачать

15 KB

Статус: проверено
Скачан: 2 раз
Размер: 1,46 GB
Профиль [ЛС]
Показать сообщения:    

Текущее время: 26-Май 15:33

Часовой пояс: UTC ± 0



Вы не можете начинать темы
Вы не можете отвечать на сообщения
Вы не можете редактировать свои сообщения
Вы не можете удалять свои сообщения
Вы не можете голосовать в опросах
Вы не можете прикреплять файлы к сообщениям
Вы можете скачивать файлы