Статистика раздачи
Размер:  19,06 GB   |    Зарегистрирован:  5 месяцев 6 дней   |    Скачан:  0 раз

Полного источника не было: Никогда

 
   
 
 

antikvar ®

Пол:
Не указан
Стаж:
5 месяцев 8 дней
Сообщений:
50


Великий Человек-Паук: Воины Паутины / Совершенный Человек-Паук / Ultimate Spider-Man: Web-Warriors
- Страна: США
Жанр: Приключения, экранизация комиксов, комедия
Продолжительность серии: 20 минут
Год выпуска: 2014
Перевод: Профессиональный (дублированный) - Невафильм
Русские субтитры: нет
Режиссёр: Тим Элдред, Алекс Сото / Tim Eldred, Alex Soto
Роли озвучивали: Александр Быковский, Екатерина Гороховская, Валерий Смекалов, Олег Куликович, Эльвира Ишмуратова и другие
Описание: Новый мультсериал о Человеке-пауке, являющийся переделкой основной серии мультфильмов. Теперь главный герой Питер Паркер превратился из наивного и отчаянного подростка в настоящего героя, который примирился со своим происхождением и способностями. Новые серии покажут уникальное путешествие, в процессе которого мы увидим, как наш любимый стенолаз объединяется с другими супергероями Марвел в никогда ранее не виденных сюжетах о новой жизни, полной сложных задач и новых друзей.
Список серий:
01. Мстящий Человек-Паук. Часть 1 (The Avenging Spider-Man. Part 1)
02. Мстящий Человек-Паук. Часть 2 (The Avenging Spider-Man. Part 2)
03. Агент Веном (Agent Venom)
04. Плащ и кинжал (Cloak & Dagger)
05. Новый Железный Паук (The Next Iron Spider)
06. Стервятник (The Vulture)
07. Дикий Человек-Паук (The Savage Spider-Man)
08. Новые воины (New Warriors)
09. Пауко-вброс. Часть 1 (Spider-verse. Part 1)
10. Пауко-вброс. Часть 2 (Spider-verse. Part 2)
11. Пауко-вброс. Часть 3 (Spider-verse. Part 3)
12. Пауко-вброс. Часть 4 (Spider-verse. Part 4)
13. Возвращение Стражей Галактики (The Return of the Guardians of the Galaxy)
14. Академия Щ.И.Т.а (S.H.I.E.L.D. Academy)
15. Неистовый носорог (Rampaging Rhino)
16. Человек-Муравей (Ant-Man)
17. За буррито (Burrito Run)
18. Нечеловечность (Inhumans)
19. Синтезоиды атакуют (Attack of the Synthezoid)
20. Реванш Арнима Золя (The Revenge of Arnim Zola)
21. Ночь в музее. Хэллоуин (Halloween Night at the Museum)
22. Кошмар на Рождество (Nightmare on Christmas)
23. Состязание чемпионов. Часть 1 (Contest of Champions. Part 1)
24. Состязание чемпионов. Часть 2 (Contest of Champions. Part 2)
25. Состязание чемпионов. Часть 3 (Contest of Champions. Part 3)
26. Состязание чемпионов. Часть 4 (Contest of Champions. Part 4)
Ссылка на предыдущие и альтернативные раздачи: http://cybertorrent.ru/tracker.php?nm=Ultimate%20Spider%20Man
Семпл: http://multi-up.com/1130659
Качество: WEB-DL
Формат: MKV
Видео: MPEG4 Video (H264) 1280x720 23.976fps ~3800Kbps
Аудио 1: Dolby AC3 48000Hz stereo 192Kbps
Аудио 2: Dolby AC3 48000Hz 5.1 384Kbps

Подробные технические данные

General
Unique ID : 234917779840316548760431033944334873026 (0xB0BB84C7514656B1A9C5EC6EED9731C2)
Complete name : H:\Videos\Ultimate Spider-Man\USM Season 3 Russian\USM.s03e01.The.Avenging.Spider-Man_Part.1(rus,eng).mkv
Format : Matroska
Format version : Version 4 / Version 2
File size : 717 MiB
Duration : 22 min
Overall bit rate : 4 546 kb/s
Encoded date : UTC 2016-12-11 18:36:40
Writing application : mkvmerge v9.4.2 ('So High') 32bit
Writing library : libebml v1.3.4 + libmatroska v1.4.5
Video
ID : 1
Format : AVC
Format/Info : Advanced Video Codec
Format profile : High@L3.1
Format settings, CABAC : No
Format settings, ReFrames : 2 frames
Format settings, GOP : N=1
Codec ID : V_MPEG4/ISO/AVC
Duration : 22 min
Bit rate : 3 968 kb/s
Width : 1 280 pixels
Height : 720 pixels
Display aspect ratio : 16:9
Frame rate mode : Constant
Frame rate : 23.976 (24000/1001) FPS
Color space : YUV
Chroma subsampling : 4:2:0
Bit depth : 8 bits
Scan type : Progressive
Bits/(Pixel*Frame) : 0.180
Stream size : 626 MiB (87%)
Default : Yes
Forced : No
Color range : Limited
Color primaries : BT.709
Transfer characteristics : BT.709
Matrix coefficients : BT.709
Audio #1
ID : 2
Format : AC-3
Format/Info : Audio Coding 3
Mode extension : CM (complete main)
Format settings, Endianness : Big
Codec ID : A_AC3
Duration : 22 min
Bit rate mode : Constant
Bit rate : 192 kb/s
Channel(s) : 2 channels
Channel positions : Front: L R
Sampling rate : 48.0 kHz
Frame rate : 31.250 FPS (1536 spf)
Compression mode : Lossy
Stream size : 30.3 MiB (4%)
Language : Russian
Default : Yes
Forced : No
Audio #2
ID : 3
Format : AC-3
Format/Info : Audio Coding 3
Mode extension : CM (complete main)
Format settings, Endianness : Big
Codec ID : A_AC3
Duration : 22 min
Bit rate mode : Constant
Bit rate : 384 kb/s
Channel(s) : 6 channels
Channel positions : Front: L C R, Side: L R, LFE
Sampling rate : 48.0 kHz
Frame rate : 31.250 FPS (1536 spf)
Compression mode : Lossy
Stream size : 60.6 MiB (8%)
Language : English
Default : No
Forced : No
Text
ID : 4
Format : UTF-8
Codec ID : S_TEXT/UTF8
Codec ID/Info : UTF-8 Plain Text
Duration : 21 min
Bit rate : 85 b/s
Count of elements : 527
Stream size : 13.4 KiB (0%)
Language : English
Default : No
Forced : No

Скриншоты

[cybertorrent.ru].t2937.torrent 
Торрент: Зарегистрирован [ 2018-02-16 14:35 ] · A0172C4606A689828991E8D50141436CC6E687A9

Скачать .torrent

Скачать

50 KB

Статус: проверено
Скачан: 0 раз
Размер: 19,06 GB
Профиль [ЛС]
Показать сообщения:    

Текущее время: 23-Июл 13:53

Часовой пояс: UTC ± 0



Вы не можете начинать темы
Вы не можете отвечать на сообщения
Вы не можете редактировать свои сообщения
Вы не можете удалять свои сообщения
Вы не можете голосовать в опросах
Вы не можете прикреплять файлы к сообщениям
Вы можете скачивать файлы