Статистика раздачи
Размер:  745 MB   |    Зарегистрирован:  3 месяца 7 дней   |    Скачан:  0 раз

Полного источника не было: Никогда

 
   
 
 

lopster ®

Пол:
Не указан
Стаж:
3 месяца 7 дней
Сообщений:
612

Гуляй, Вася!
Страна: Россия
Жанр: комедия
Год выпуска: 2017
Продолжительность: 01:36:02
Субтитры: нет-Режиссер: Роман Каримов-В ролях: Ефим Петрунин, Любовь Аксенова, Роман Курцын, Софья Райзман, Борис Дергачев, Сергей Аброскин, Светлана Степанковская, Вера Панфилова, Наталья Тетенова, Давид Петросян-Описание: Бедный Митя влип по полной: случайно сделал предложение, а отец девушки, как будто только этого и ждал - тут же назначил дату свадьбы. Все бы ничего, да только Митя… уже женат! Он возвращается в свой город, чтобы экстренно развестись. Но Василиса (или просто Вася), с которой они давно не живут, - циничная стерва, и за развод придется побороться. Простейший способ ускорить процесс - предъявить первую попавшуюся «невесту». Кто же знал, что у нее имеется настоящий жених, местный качок... Окончательно все запутывается, когда разруливать ситуацию берутся бывшие одноклассники Мити - подкаблучник Паша и аферист Гарик.-Качество видео: BDRip | GULYAI_VASYA_HDCLUB
Формат видео: AVI
Видео: 656x368 (1.78:1), 24.000 fps, XviD build 73 ~946 kbps avg, 0.16 bit/pixel
Аудио: 48 kHz, MPEG Layer 3, 2 ch, ~128.00 kbps avg-Скачать сэмпл-

MI

Код:Format : AVI
Format/Info : Audio Video Interleave
File size : 745 MiB
Duration : 1 h 36 min
Overall bit rate : 1 084 kb/s
Writing application : VirtualDubMod 1.5.10.3 | www.virtualdub-fr.org || (build 2550/release)
Writing library : VirtualDubMod build 2550/release
Video
ID : 0
Format : MPEG-4 Visual
Format profile : Advanced Simple@L5
Format settings, BVOP : 1
Format settings, QPel : No
Format settings, GMC : No warppoints
Format settings, Matrix : Custom
Codec ID : XVID
Codec ID/Hint : XviD
Duration : 1 h 36 min
Bit rate : 946 kb/s
Width : 656 pixels
Height : 368 pixels
Display aspect ratio : 16:9
Frame rate : 24.000 FPS
Color space : YUV
Chroma subsampling : 4:2:0
Bit depth : 8 bits
Scan type : Progressive
Compression mode : Lossy
Bits/(Pixel*Frame) : 0.163
Stream size : 650 MiB (87%)
Writing library : XviD 73
Audio
ID : 1
Format : MPEG Audio
Format version : Version 1
Format profile : Layer 3
Codec ID : 55
Codec ID/Hint : MP3
Duration : 1 h 36 min
Bit rate mode : Constant
Bit rate : 128 kb/s
Channel(s) : 2 channels
Sampling rate : 48.0 kHz
Compression mode : Lossy
Stream size : 87.9 MiB (12%)
Alignment : Aligned on interleaves
Interleave, duration : 42 ms (1.00 video frame)
Interleave, preload duratio : 504 ms
Writing library : LAME3.99r
Encoding settings : -m s -V 4 -q 2 -lowpass 17 -b 128

Скриншоты


[cybertorrent.ru].t294.torrent 
Торрент: Зарегистрирован [ 2018-02-15 15:48 ] · FEDE3F5E95E21A456CFB8F9B4D600A38494FBED6

Скачать .torrent

Скачать

15 KB

Статус: проверено
Скачан: 0 раз
Размер: 745 MB
Профиль [ЛС]
Показать сообщения:    

Текущее время: 23-Май 07:24

Часовой пояс: UTC ± 0



Вы не можете начинать темы
Вы не можете отвечать на сообщения
Вы не можете редактировать свои сообщения
Вы не можете удалять свои сообщения
Вы не можете голосовать в опросах
Вы не можете прикреплять файлы к сообщениям
Вы можете скачивать файлы