Статистика раздачи
Размер:  1,68 GB   |    Зарегистрирован:  6 месяцев 28 дней   |    Скачан:  0 раз

Полного источника не было: Никогда

   
 

Гость ®

Пол:
Не указан

Анна Петровна (2 серии)
Жанр: драма
Год выпуска: 1989
Продолжительность: 01:06:07 + 01:10:15
Режиссёр: Инесса Селезнева
В ролях: Елена Юнгер, Лариса Гузеева, Валерий Хромушкин, Елена Адрузова, Владимир Князев, Степан Старчиков, Геннадий Храпунков, Юрий Шлыков, Лидия Савченко, Вера Ивлева, Сергей Быстрицкий, Галина Соколова, Андрей Степанов, Владимир Возженников
Описание: многое пережила в своей жизни Анна Петровна: тяжелые годы гражданской войны, гибель мужа, смерть дочери, а теперь - равнодушие и цинизм внучки. Неожиданно выясняется, что кольцо, единственное украшение Анны Петровны, имеет большую ценность.
Доп. информация: Запись потока *.ts со спутника EUTELSAT 36A/B, 36° в.д., удаление рекламы программой VideoReDo.
Качество видео: DVB
Формат видео: TS
Видео: Advanced Video Codec, 720x576 (4:3), 25,000 кадров/сек, 1396 Кбит/сек
Аудио: MPEG Audio, 48,0 КГц, 192 Кбит/сек, 2 канала

MediaInfo

Общее
Идентификатор : 1 (0x1)
Полное имя : H:\НАШЕ_А_И\АННА ПЕТРОВНА\АННА ПЕТРОВНА 01 (Ностальгия).ts
Формат : MPEG-TS
Размер файла : 791 Мбайт
Продолжительность : 1 ч. 6 м.
Режим общего битрейта : Переменный
Общий поток : 1673 Кбит/сек
Видео
Идентификатор : 217 (0xD9)
Идентификатор меню : 1 (0x1)
Формат : AVC
Формат/Информация : Advanced Video Codec
Профиль формата : High@L3
Параметр CABAC формата : Да
Параметр ReFrames формата : 4 кадра
Идентификатор кодека : 27
Продолжительность : 1 ч. 6 м.
Битрейт : 1396 Кбит/сек
Ширина : 720 пикселей
Высота : 576 пикселей
Соотношение сторон : 4:3
Частота кадров : 25,000 кадров/сек
Стандарт вещания : Component
Цветовое пространство : YUV
Субдискретизация насыщенности : 4:2:0
Битовая глубина : 8 бит
Тип развёртки : Чересстрочная
Метод сохранения типа развёртки : Раздельные поля
Порядок развёртки : Верхнее поле первое
Бит/(Пиксели*Кадры) : 0.135
Размер потока : 660 Мбайт (83%)
Цветовой диапазон : Limited
Основные цвета : BT.601 PAL
Характеристики трансфера : BT.470 System B, BT.470 System G
Коэффициенты матрицы : BT.601
Аудио
Идентификатор : 317 (0x13D)
Идентификатор меню : 1 (0x1)
Формат : MPEG Audio
Версия формата : Version 1
Профиль формата : Layer 2
Идентификатор кодека : 3
Продолжительность : 1 ч. 6 м.
Вид битрейта : Постоянный
Битрейт : 192 Кбит/сек
Каналы : 2 канала
Частота : 48,0 КГц
Метод сжатия : С потерями
Размер потока : 90,8 Мбайт (11%)
Язык : Russian
Общее
Идентификатор : 1 (0x1)
Полное имя : H:\НАШЕ_А_И\АННА ПЕТРОВНА\АННА ПЕТРОВНА 02 (Ностальгия).ts
Формат : MPEG-TS
Размер файла : 926 Мбайт
Продолжительность : 1 ч. 10 м.
Режим общего битрейта : Переменный
Общий поток : 1843 Кбит/сек
Видео
Идентификатор : 217 (0xD9)
Идентификатор меню : 1 (0x1)
Формат : AVC
Формат/Информация : Advanced Video Codec
Профиль формата : High@L3
Параметр CABAC формата : Да
Параметр ReFrames формата : 4 кадра
Идентификатор кодека : 27
Продолжительность : 1 ч. 10 м.
Битрейт : 1558 Кбит/сек
Ширина : 720 пикселей
Высота : 576 пикселей
Соотношение сторон : 4:3
Частота кадров : 25,000 кадров/сек
Стандарт вещания : Component
Цветовое пространство : YUV
Субдискретизация насыщенности : 4:2:0
Битовая глубина : 8 бит
Тип развёртки : Чересстрочная
Метод сохранения типа развёртки : Раздельные поля
Порядок развёртки : Верхнее поле первое
Бит/(Пиксели*Кадры) : 0.150
Размер потока : 783 Мбайт (85%)
Цветовой диапазон : Limited
Основные цвета : BT.601 PAL
Характеристики трансфера : BT.470 System B, BT.470 System G
Коэффициенты матрицы : BT.601
Аудио
Идентификатор : 317 (0x13D)
Идентификатор меню : 1 (0x1)
Формат : MPEG Audio
Версия формата : Version 1
Профиль формата : Layer 2
Идентификатор кодека : 3
Продолжительность : 1 ч. 10 м.
Вид битрейта : Постоянный
Битрейт : 192 Кбит/сек
Каналы : 2 канала
Частота : 48,0 КГц
Метод сжатия : С потерями
Размер потока : 96,5 Мбайт (10%)
Язык : Russian
[cybertorrent.ru].t294.torrent 
Торрент: Зарегистрирован [ 2019-03-18 10:04 ] · 399B5C8D8D82C8FDBFCB13478A3516198496BA67

Скачать .torrent

Скачать

17 KB

Статус: проверено
Скачан: 0 раз
Размер: 1,68 GB
terms.php
Показать сообщения:    

Текущее время: 16-Окт 05:02

Часовой пояс: UTC ± 0



Вы не можете начинать темы
Вы не можете отвечать на сообщения
Вы не можете редактировать свои сообщения
Вы не можете удалять свои сообщения
Вы не можете голосовать в опросах
Вы не можете прикреплять файлы к сообщениям
Вы можете скачивать файлы