Статистика раздачи
Размер:  2,77 GB   |    Зарегистрирован:  3 месяца 12 дней   |    Скачан:  0 раз

Полного источника не было: Никогда

Личеров:  1  [  0 KB/s  ]  
 
   
 
 

lopster ®

Пол:
Не указан
Стаж:
3 месяца 12 дней
Сообщений:
612

Гуляй, Вася!- Жанр: комедия
Год выпуска: 2017
Продолжительность: 01:36:03
Режиссер: Роман Каримов
В ролях: Ефим Петрунин (Митя), Любовь Аксенова (Василиса), Роман Курцын (Макс), Софья Райзман (Настя), Борис Дергачев (Паша), Сергей Аброскин (Гарик), Светлана Степанковская (Алиса), Вера Панфилова (Кира), Наталья Тетенова (Жанна), Давид Петросян (Тигран), Станислав Тляшев (Ренат), Ольга Лебедева (мама Мити)
Описание: Бедный Митя влип по полной: случайно сделал предложение, а отец девушки, как будто только этого и ждал - тут же назначил дату свадьбы. Все бы ничего, да только Митя... уже женат! Он возвращается в свой город, чтобы экстренно развестись. Но Василиса (или просто Вася), с которой они давно не живут, - циничная стерва, и за развод придется побороться. Простейший способ ускорить процесс - предъявить первую попавшуюся «невесту». Кто же знал, что у нее имеется настоящий жених, местный качок... Окончательно все запутывается, когда разруливать ситуацию берутся бывшие одноклассники Мити - подкаблучник Паша и аферист Гарик.- -Качество: BDRip-AVC (исходник - Blu-ray|GULYAI_VASYA_HDCLUB)
Формат видео: MKV
Видео: x264, 1152x648 (16:9) 24 fps, ~3593 kbps, 0.201 bit/pixel
Аудио: 48 kHz, AC3 Dolby Digital, 5.1 (Front: L C R, Side: L R, LFE) ch, ~448 kbps-

MediaInfo | x264 log

Format : Matroska
Format version : Version 4 / Version 2
File size : 2.77 GiB
Duration : 1h 36 min
Overall bit rate : 4 123 kb/s
Movie name : Гуляй, Вася! (2017) :: AFM ::
Encoded date : UTC 2017-05-14 22:27:42
Writing application : mkvmerge v8.3.0 ('Over the Horizon') 32bit
Writing library : libebml v1.3.1 + libmatroska v1.4.2
Video
ID : 1
Format : AVC
Format/Info : Advanced Video Codec
Format profile : High@L4.1
Format settings, CABAC : Yes
Format settings, ReFrames : 10 frames
Codec ID : V_MPEG4/ISO/AVC
Duration : 1h 36 min
Bit rate : 3 593 kb/s
Width : 1 152 pixels
Height : 648 pixels
Display aspect ratio : 16:9
Frame rate mode : Constant
Frame rate : 24.000 FPS
Color space : YUV
Chroma subsampling : 4:2:0
Bit depth : 8 bits
Scan type : Progressive
Bits/(Pixel*Frame) : 0.201
Stream size : 2.41 GiB (87%)
Title : BDRip by AFM
Writing library : x264 core 150 r2818+45 3daaad6 7mod [8-bit@all X86_64]
Encoding settings : cabac=1 / ref=10 / deblock=1:-2:-2 / analyse=0x3:0x113 / me=umh / subme=10 / psy=1 / fade_compensate=0.00 / psy_rd=1.00:0.00 / mixed_ref=1 / me_range=32 / chroma_me=0 / trellis=2 / 8x8dct=1 / cqm=0 / deadzone=21,11 / fast_pskip=0 / chroma_qp_offset=-2 / threads=6 / lookahead_threads=1 / sliced_threads=0 / nr=0 / decimate=1 / interlaced=0 / bluray_compat=0 / constrained_intra=0 / fgo=0 / bframes=11 / b_pyramid=2 / b_adapt=2 / b_bias=0 / direct=1 / weightb=1 / open_gop=0 / weightp=2 / keyint=240 / keyint_min=23 / scenecut=40 / intra_refresh=0 / rc_lookahead=60 / rc=crf / mbtree=0 / crf=18.3000 / qcomp=0.65 / qpmin=0:0:0 / qpmax=69:69:69 / qpstep=4 / vbv_maxrate=50000 / vbv_bufsize=62500 / crf_max=0.0 / nal_hrd=none / filler=0 / ip_ratio=1.35 / pb_ratio=1.20 / aq=3:0.90 / aq-sensitivity=10.00 / aq-factor=1.00:1.00:1.00 / aq2=0 / aq3=0 / zones=131027,138303,q=27
Language : Russian
Default : Yes
Forced : No
Audio
ID : 2
Format : AC-3
Format/Info : Audio Coding 3
Mode extension : CM (complete main)
Format settings, Endianness : Big
Codec ID : A_AC3
Duration : 1h 36 min
Bit rate mode : Constant
Bit rate : 448 kb/s
Channel(s) : 6 channels
Channel positions : Front: L C R, Side: L R, LFE
Sampling rate : 48.0 kHz
Frame rate : 31.250 FPS (1536 spf)
Compression mode : Lossy
Stream size : 308 MiB (11%)
Title : AC3 5.1 ~448 kbps
Language : Russian
Default : Yes
Forced : No
Menu
00:00:00.000 : ru:Chapter 1
00:00:38.500 : ru:Chapter 2
00:10:37.208 : ru:Chapter 3
00:21:31.958 : ru:Chapter 4
00:33:54.250 : ru:Chapter 5
00:44:16.250 : ru:Chapter 6
00:58:07.541 : ru:Chapter 7
01:09:39.916 : ru:Chapter 8
01:21:14.416 : ru:Chapter 9

x264

x264 [info]: frame I:1299 Avg QP:16.85 size: 90056
x264 [info]: frame P:30787 Avg QP:18.23 size: 36270
x264 [info]: frame B:106217 Avg QP:20.13 size: 13300
x264 [info]: consecutive B-frames: 1.8% 2.1% 7.5% 31.7% 24.3% 24.7% 4.1% 1.0% 1.0% 0.3% 0.3% 1.1%
x264 [info]: mb I I16..4: 4.2% 79.7% 16.1%
x264 [info]: mb P I16..4: 2.0% 17.9% 2.5% P16..4: 36.7% 24.2% 10.9% 0.0% 0.0% skip: 5.8%
x264 [info]: mb B I16..4: 0.2% 1.8% 0.3% B16..8: 36.3% 11.8% 2.8% direct:10.2% skip:36.5% L0:40.5% L1:42.7% BI:16.8%
x264 [info]: 8x8 transform intra:79.5% inter:65.7%
x264 [info]: coded y,uvDC,uvAC intra: 82.8% 90.2% 73.8% inter: 24.9% 32.9% 13.9%
x264 [info]: i16 v,h,dc,p: 27% 13% 8% 52%
x264 [info]: i8 v,h,dc,ddl,ddr,vr,hd,vl,hu: 16% 10% 8% 8% 11% 12% 11% 11% 12%
x264 [info]: i4 v,h,dc,ddl,ddr,vr,hd,vl,hu: 15% 9% 4% 8% 14% 14% 13% 11% 11%
x264 [info]: i8c dc,h,v,p: 44% 19% 19% 17%
x264 [info]: Weighted P-Frames: Y:97.0% UV:1.4%
x264 [info]: ref P L0: 50.8% 12.6% 15.8% 5.3% 4.7% 3.2% 3.0% 1.5% 1.6% 1.4% 0.0% 0.0%
x264 [info]: ref B L0: 79.3% 9.3% 4.4% 2.2% 1.6% 1.4% 1.1% 0.5% 0.2%
x264 [info]: ref B L1: 96.0% 4.0%
x264 [info]: kb/s:3673.71

Скриншоты

с названием

[cybertorrent.ru].t295.torrent 
Торрент: Зарегистрирован [ 2018-02-15 15:48 ] · 39B9E70B5A320FCD55BBE4E0FCF5ED647647F3F4

Скачать .torrent

Скачать

14 KB

Статус: проверено
Скачан: 0 раз
Размер: 2,77 GB
Профиль [ЛС]
Показать сообщения:    

Текущее время: 28-Май 03:04

Часовой пояс: UTC ± 0



Вы не можете начинать темы
Вы не можете отвечать на сообщения
Вы не можете редактировать свои сообщения
Вы не можете удалять свои сообщения
Вы не можете голосовать в опросах
Вы не можете прикреплять файлы к сообщениям
Вы можете скачивать файлы