Статистика раздачи
Размер:  15,98 GB   |    Зарегистрирован:  6 месяцев   |    Скачан:  0 раз

Полного источника не было: Никогда

 
   
 
 

firebird ®

Пол:
Не указан
Стаж:
6 месяцев 1 день
Сообщений:
323

Pocket Monsters Sun & Moon / Покемон: Солнце и Луна- Страна: Япония
Год выпуска: 2016 г.
Жанр: кодомо, фэнтези, комедия, приключения
Тип: TV-сериал
Серии: XX эпизодов по 25 минут
Автор: Тадзири Сатоси
Режиссер: Юяма Кунихико, Томиясу Дайки
Студия: Oriental Light and Magic-Информационные ссылки: AniDB || World Art || MAL || ANN-Релиз подготовлен группой Pokefans Community
  • Перевод: Leek (1-16, 19-24, 26-28, 30, 33, 35), Degeto (17, 18, 25, 29, 31-32, 34, 36-37)
  • Редакция: Degeto (1-16, 19-24, 26-28, 30, 33, 35), Leek (17, 18, 25, 29, 31-32, 34, 36-37)-Описание: После того как мать Сатоши выигрывает бесплатную поездку на острова, он и Пикачу отправляются на остров Мелемеле прекрасного региона Алола. Этот регион наполнен новыми покемонами и даже новыми вариациями старых. Из-за сильного желания исследовать остров, Сатоши и Пикачу потерялись, пока преследовали покемона. В итоге они находят Школу Покемонов, где её ученики изучают покемонов.
    Во время экскурсии по школе, Сатоши и один из учеников школы - Каки, натыкаются на Команду Череп. Во время схватки Сатоши узнал о существовании Z-Атак - сильные атаки, которые зародились в региона Алола и требуют сильной связи покемона и тренера. Позже этой ночью, Сатоши и Пикачу встречают Божественного Стража острова Мелемеле, мистического Капу-Кокеко. Он подарил им Z-Кольцо, которое нужно для активации Z-Атак. Едва удержав восторг от недавней битвы, Сатоши и Пикачу решают остаться в регионе Алола, чтобы изучить эти новые атаки.
    После поступления в школу, Сатоши познакомился со своими одноклассниками: Лили, которая любит покемонов, но не может дотронуться до них, Каки и с многими другими. Посещать уроки, отбиваться от Команды Ракета, которые прибыли в Алолу на новую миссию и проходить Испытания Островов - всё это новое приключение Сатоши и Пикачу на пути изучения Z-Атак.-Качество: HDTVRip | Энкод: 모에-Raws
    Тип видео: Без хардсаба
    Формат: MKV
    Видео: x264 (8 bit) 1280x720, ~2 507 kbps, 29.970 fps
    Аудио: AAC, 204 kbps, 48 kHz, 2 ch [Japanese]
    Субтитры: ASS, Отключаемые, Встроенные [Russian]

    Список эпизодов

    01. Алола! Новые острова, новые покемоны!!
    02. Встречайте божественного стража, Капу-Кокеко! Попробуем Z-Атаку!!
    03. Приротоветствую, я - Ротомдекс!
    04. Встречайте Мокуро! Я поймал покемона в Алоле!!
    05. Ашимари, лопни все преграды будто шарик!
    06. Стремительный Заряд Тогедемару!
    07. Рыночный странник, Нябби!
    08. Кто будет следить за яйцом?
    09. Тотемный Покемон Декагус!
    10. Сработает ли Z-Атака?! Прохождение Великого Испытания!!
    11. Сатоши посещает Каки!
    12. Внеклассный урок от Хидоиде!?
    13. Великая Гонка Блинчиков Алолы!
    14. Плод Отваги: Лили и Рокон!
    15. Когтевой Холм: Иванко и Лугаруган!!
    16. Маленькое Трио, Большое Приключение!!
    17. Детектив Алолы Ротом! Загадка Потерянного Кристалла!!
    18. Серьёзно!? Операция Готовка Мао!!
    19. Интенсивная Электрическая Тренировка! Рематч с Капу-Кокеко!!
    20. Обещание Cатoши и Пикaчу
    21. Нябби пора уходить!
    22. Берегитесь Лопаток!!!
    23. Настоящий Шок! Дагтрио Распались?!
    24. Алола! День Открытых Дверей!!
    25. Битва за Кристалл! Команда Ракета Против Команды Череп!!
    26. Прощай, Мамане!
    27. Явись, красноглазый Лугаруган!!
    28. Свирепый матч Покебейса! Пробей Хоум Ран, чтобы победить!!
    29. Эй, а ты тоже уснёшь в лесу Немашей?
    30. Лили, присмотри за Пикачу
    31. Знакомьтесь с Лайчи! Плачь и Смейся, Королева Острова!!
    32. Мы Нашли Сокровище! Поиск с Муландом!!
    33. Маленький Йоваши не слаб, он Лорд Озера!
    34. Огненная битва! Появление Гарагары!!
    35. Безумно красивая битва! Tанец Лалантес!!
    36. Великое испытание Лайчи! Самая сложная битва покемонов!!
    37. Иванко и божественный страж руин жизни!

    Подробные тех. данные

    General
    Unique ID : 216811976682582280834027115706532568242 (0xA31C77C3046B2A05B6C9CD0A507D1CB2)
    Complete name : Pocket Monsters Sun & Moon\[PC] Pocket Monsters (Pokemon) Sun & Moon 01-02 [RUS SUB, 720p].mkv
    Format : Matroska
    Format version : Version 4 / Version 2
    File size : 930 MiB
    Duration : 47 min 54 s
    Overall bit rate : 2 714 kb/s
    Encoded date : UTC 2017-05-26 09:19:19
    Writing application : mkvmerge v12.0.0 ('Trust / Lust') 64bit
    Writing library : libebml v1.3.4 + libmatroska v1.4.5
    Video
    ID : 1
    Format : AVC
    Format/Info : Advanced Video Codec
    Format profile : High@L4
    Format settings, CABAC : Yes
    Format settings, ReFrames : 6 frames
    Codec ID : V_MPEG4/ISO/AVC
    Duration : 47 min 54 s
    Bit rate : 2 507 kb/s
    Width : 1 280 pixels
    Height : 720 pixels
    Display aspect ratio : 16:9
    Frame rate mode : Constant
    Frame rate : 29.970 (30000/1001) FPS
    Color space : YUV
    Chroma subsampling : 4:2:0
    Bit depth : 8 bits
    Scan type : Progressive
    Bits/(Pixel*Frame) : 0.091
    Stream size : 859 MiB (92%)
    Writing library : x264 core 148 r2721+55 e19946b t_mod_Custom [8-bit@all X86_64]
    Encoding settings : cabac=1 / ref=6 / deblock=1:1:1 / analyse=0x3:0x133 / me=umh / subme=9 / psy=1 / fade_compensate=0.00 / psy_rd=0.40:0.00 / mixed_ref=1 / me_range=32 / chroma_me=1 / trellis=2 / 8x8dct=1 / cqm=0 / deadzone=21,11 / fast_pskip=0 / chroma_qp_offset=-2 / threads=12 / lookahead_threads=1 / sliced_threads=0 / nr=0 / decimate=1 / interlaced=0 / bluray_compat=0 / constrained_intra=0 / fgo=0 / bframes=4 / b_pyramid=2 / b_adapt=2 / b_bias=0 / direct=3 / weightb=1 / open_gop=0 / weightp=2 / keyint=250 / keyint_min=25 / scenecut=40 / intra_refresh=0 / rc_lookahead=50 / rc=crf / mbtree=1 / crf=18.0000 / qcomp=0.60 / qpmin=0:0:0 / qpmax=69:69:69 / qpstep=4 / ip_ratio=1.40 / aq=1:0.60 / aq-sensitivity=10.00 / aq-factor=1.00:1.00:1.00 / aq2=0 / aq3=0
    Language : Japanese
    Default : Yes
    Forced : No
    Color range : Limited
    Color primaries : BT.709
    Transfer characteristics : BT.709
    Matrix coefficients : BT.709
    Audio
    ID : 2
    Format : AAC
    Format/Info : Advanced Audio Codec
    Format profile : LC
    Codec ID : A_AAC
    Duration : 47 min 54 s
    Bit rate : 204 kb/s
    Channel(s) : 2 channels
    Channel positions : Front: L R
    Sampling rate : 48.0 kHz
    Frame rate : 46.875 FPS (1024 spf)
    Compression mode : Lossy
    Stream size : 69.8 MiB (8%)
    Language : Japanese
    Default : Yes
    Forced : No
    Text
    ID : 3
    Format : ASS
    Codec ID : S_TEXT/ASS
    Codec ID/Info : Advanced Sub Station Alpha
    Duration : 47 min 54 s
    Bit rate : 158 b/s
    Count of elements : 851
    Compression mode : Lossless
    Stream size : 55.8 KiB (0%)
    Language : Russian
    Default : Yes
    Forced : No

    Скриншоты

    [cybertorrent.ru].t2952.torrent 
    Торрент: Зарегистрирован [ 2018-02-16 14:35 ] · 69C11E01AD63CF7E8F751170B6E02800EFB1799B

    Скачать .torrent

    Скачать

    44 KB

    Статус: проверено
    Скачан: 0 раз
    Размер: 15,98 GB
  • Профиль [ЛС]
    Показать сообщения:    

    Текущее время: 17-Авг 09:17

    Часовой пояс: UTC ± 0



    Вы не можете начинать темы
    Вы не можете отвечать на сообщения
    Вы не можете редактировать свои сообщения
    Вы не можете удалять свои сообщения
    Вы не можете голосовать в опросах
    Вы не можете прикреплять файлы к сообщениям
    Вы можете скачивать файлы
    Torrents24.ru открытый BitTorrent Torrents24.pl открытый BitTorrent CyberTorrent.ru открытый BitTorrent BtList.ru рейтинг BitTorrent трекеров Яндекс.Метрика