Статистика раздачи
Размер:  1,05 GB   |    Зарегистрирован:  3 месяца 12 дней   |    Скачан:  0 раз

Полного источника не было: Никогда

 
   
 
 

lopster ®

Пол:
Не указан
Стаж:
3 месяца 12 дней
Сообщений:
612

Высшая мера
Жанр: Драма
Год выпуска: 1992
Продолжительность: 00:57:50
Режиссёр: Евгений Леонов-Гладышев, Виктор Трахтенберг
В ролях: Алексей Серебряков
Елена Кузьмина
Игорь Добряков
Евгений Леонов-Гладышев
Описание: Камера смертника, молодого парня, приговоренного к исключительной мере наказания за кражу и убийство. Помилование отклонено, и Виктору Семакову предстоит прожить последнюю ночь своей жизни. Его выводят из камеры и заталкивают в другую, где на нарах сидит женщина. Не готовый к игре в эту трудную ночь, он будет искренен до конца, а утро все безжалостно расставит по своим местам…
Доп. информация: За Активное участие в создании релиза огромная благодарность Tuts77 , а также большое спасибо Татьяне за присланную мне кассету

Сэмпл: https://yadi.sk/i/T7PPCvrV3JDd28
Качество видео: VHSRip
Формат видео: AVI
Видео: Xvid MPEG-4 , 640x480 (1.33:1) , 25.000 fps , 2 400 Kbps
Аудио: AC3 , 48 kHz , 192.00 kbps avg , 2/0 (L,R) ch

MediaInfo

Complete name Высшая мера 1992.avi
Format : AVI
Format/Info : Audio Video Interleave
File size : 1.05 GiB
Duration : 57mn 50s
Overall bit rate : 2 602 Kbps
Writing application : VirtualDubMod 1.5.10.3 | www.virtualdub-fr.org || (build 2550/release)
Writing library : VirtualDub build 35491/release
Video
ID : 0
Format : MPEG-4 Visual
Format profile : Advanced Simple@L5
Format settings, BVOP : 1
Format settings, QPel : No
Format settings, GMC : No warppoints
Format settings, Matrix : Custom
Codec ID : XVID
Codec ID/Hint : XviD
Duration : 57mn 50s
Bit rate : 2 400 Kbps
Width : 640 pixels
Height : 480 pixels
Display aspect ratio : 4:3
Frame rate : 25.000 fps
Color space : YUV
Chroma subsampling : 4:2:0
Bit depth : 8 bits
Scan type : Progressive
Compression mode : Lossy
Bits/(Pixel*Frame) : 0.312
Stream size : 993 MiB (92%)
Writing library : XviD 73
Audio
ID : 1
Format : AC-3
Format/Info : Audio Coding 3
Mode extension : CM (complete main)
Format settings, Endianness : Big
Codec ID : 2000
Duration : 57mn 50s
Bit rate mode : Constant
Bit rate : 192 Kbps
Channel(s) : 2 channels
Channel positions : Front: L R
Sampling rate : 48.0 KHz
Frame rate : 31.250 fps (1536 spf)
Compression mode : Lossy
Stream size : 79.4 MiB (7%)
Alignment : Aligned on interleaves
Interleave, duration : 40 ms (1.00 video frame)
Interleave, preload duratio : 512 ms
[cybertorrent.ru].t297.torrent 
Торрент: Зарегистрирован [ 2018-02-15 15:48 ] · 4FF1D60339B233E63C2EE689CBAE0226F887117A

Скачать .torrent

Скачать

11 KB

Статус: проверено
Скачан: 0 раз
Размер: 1,05 GB
Профиль [ЛС]
Показать сообщения:    

Текущее время: 28-Май 03:21

Часовой пояс: UTC ± 0



Вы не можете начинать темы
Вы не можете отвечать на сообщения
Вы не можете редактировать свои сообщения
Вы не можете удалять свои сообщения
Вы не можете голосовать в опросах
Вы не можете прикреплять файлы к сообщениям
Вы можете скачивать файлы