Статистика раздачи
Размер:  748 MB   |    Зарегистрирован:  3 месяца 7 дней   |    Скачан:  0 раз

Полного источника не было: Никогда

 
   
 
 

lopster ®

Пол:
Не указан
Стаж:
3 месяца 7 дней
Сообщений:
612

Везучий случай
Страна: Россия
Жанр: комедия
Год выпуска: 2017
Продолжительность: 01:32:52
Субтитры: нет-Режиссер:
Роман Самгин-В ролях:
Андрей Рожков, Дмитрий Брекоткин, Вячеслав Мясников, Михаил Трухин, Алексей Маклаков, Олеся Железняк, Ольга Медынич, Ольга Дибцева, Валентина Мазунина, Юлия Михалкова-Описание:
Валерка с друзьями обнаруживает у себя лотерейный билет, который даже не помнит, кто и как покупал. А билет оказывается выигрышный — 43 миллиона рублей! Целое состояние для скромного Екатеринбурга! Да чего уж там, для целого отдела продавцов — Валерки и его друзей. Выигрыш решили делить на всех, устроили гулянку, настроили планов… но быстро поняли, что не видать им денег, если о них узнают жены. Мужики выкрадывают свои паспорта и сбегают из дома в Москву. А жены следуют за ними по пятам.-Качество видео: WEB-DLRip
Формат видео: AVI
Видео: 688x288 (2.39:1), 24.000 fps, XviD build 73 ~988 kbps avg, 0.21 bit/pixel
Аудио: 48 kHz, MPEG Layer 3, 2 ch, ~128.00 kbps avg-Скачать сэмпл-

MediaInfo

Код:Format : AVI
Format/Info : Audio Video Interleave
File size : 748 MiB
Duration : 1 h 32 min
Overall bit rate : 1 126 kb/s
Writing application : VirtualDubMod 1.5.10.3 | www.virtualdub-fr.org || (build 2550/release)
Writing library : VirtualDubMod build 2550/release
Video
ID : 0
Format : MPEG-4 Visual
Format profile : Advanced Simple@L5
Format settings, BVOP : 1
Format settings, QPel : No
Format settings, GMC : No warppoints
Format settings, Matrix : Custom
Codec ID : XVID
Codec ID/Hint : XviD
Duration : 1 h 32 min
Bit rate : 989 kb/s
Width : 688 pixels
Height : 288 pixels
Display aspect ratio : 2.40:1
Frame rate : 24.000 FPS
Color space : YUV
Chroma subsampling : 4:2:0
Bit depth : 8 bits
Scan type : Progressive
Compression mode : Lossy
Bits/(Pixel*Frame) : 0.208
Stream size : 657 MiB (88%)
Writing library : XviD 73
Audio
ID : 1
Format : MPEG Audio
Format version : Version 1
Format profile : Layer 3
Codec ID : 55
Codec ID/Hint : MP3
Duration : 1 h 32 min
Bit rate mode : Constant
Bit rate : 128 kb/s
Channel(s) : 2 channels
Sampling rate : 48.0 kHz
Compression mode : Lossy
Stream size : 85.0 MiB (11%)
Alignment : Aligned on interleaves
Interleave, duration : 42 ms (1.00 video frame)
Interleave, preload duratio : 504 ms
Writing library : LAME3.99r
Encoding settings : -m s -V 4 -q 2 -lowpass 17 -b 128

Скриншоты

[cybertorrent.ru].t299.torrent 
Торрент: Зарегистрирован [ 2018-02-15 15:48 ] · F5F1B03B0A6BDD4346776F1968BC6C86E2242E0A

Скачать .torrent

Скачать

15 KB

Статус: проверено
Скачан: 0 раз
Размер: 748 MB
Профиль [ЛС]
Показать сообщения:    

Текущее время: 23-Май 07:25

Часовой пояс: UTC ± 0



Вы не можете начинать темы
Вы не можете отвечать на сообщения
Вы не можете редактировать свои сообщения
Вы не можете удалять свои сообщения
Вы не можете голосовать в опросах
Вы не можете прикреплять файлы к сообщениям
Вы можете скачивать файлы