Статистика раздачи
Размер:  1,76 GB   |    Зарегистрирован:  3 месяца 8 дней   |    Скачан:  0 раз

Полного источника не было: Никогда

 
   
 
 

lopster ®

Пол:
Не указан
Стаж:
3 месяца 8 дней
Сообщений:
612

Казароза
Трёхсерийный художественный фильм
Год выпуска: 2006
Жанр: Триллер
Продолжительность: 02:36:24
Режиссер: Алена Демьяненко
В ролях: Оксана Фандера, Евгения Крюкова, Алексей Серебряков, Владислав Галкин, Егор Бероев, Даниил Спиваковский, Екатерина Вуличенко, Виктор Вержбицкий, Максим Аверин, Анна Большова, Дмитрий Шевченко, Александр Лыков, Анатолий Журавлев, Петр Вельяминов, Кирилл Лавров, Ксения Раппопорт, Лия Ахеджакова.-Описание: Россия, 1920 год. Известная певица Зинаида Казароза приезжает с гастролями в маленький уральский городок. Члены клуба любителей эсперанто приглашают звезду выступить у себя на вечере. Казароза соглашается и… погибает прямо на сцене от рук неизвестного убийцы. Эсперантист Свечников, влюбленный в певицу и устроивший ее концерт, пытается установить, кто совершил это чудовищное злодейство. Но только лишь полвека спустя, ему удается узнать тайну гибели Казарозы…
Зрителей ждет звездный актерский состав, увлекательный сюжет и неожиданная развязка.-3-Диска-Все раздачи фильма: Казароза-Качество: DVDRip
Формат: AVI
Видео кодек: DivX
Аудио кодек: AC3
Видео: 640x304 (2.11:1), 25 fps, ~1383 kbps avg, 0.28 bit/pixel
Аудио: 48 kHz, AC3 Dolby Digital, 2/0 (L,R) ch, ~192.00 kbps avg

MI

Код:Общее
Полное имя : C:\otkat\Видео\Казароза\kazaroza-DviX-by-fontan\kazaroza-1-DviX-by-fontan.avi
Формат : AVI
Формат/Информация : Audio Video Interleave
Размер файла : 600 Мбайт
Продолжительность : 52 м.
Общий поток : 1585 Кбит/сек
Программа кодирования : VirtualDubMod 1.5.10.2 (build 2540/release)
Библиотека кодирования : VirtualDubMod build 2540/release
Видео
Идентификатор : 0
Формат : MPEG-4 Visual
Параметр BVOP формата : Да
Параметр QPel формата : Нет
Параметр GMC формата : Без точки перехода
Параметр матрицы формата : Default (H.263)
Идентификатор кодека : DX50
Идентификатор кодека/Подсказка : DivX 5
Продолжительность : 52 м.
Битрейт : 1383 Кбит/сек
Ширина : 640 пикселей
Высота : 304 пикселя
Соотношение сторон : 2,105
Частота кадров : 25,000 кадров/сек
Цветовое пространство : YUV
Субдискретизация насыщенности : 4:2:0
Битовая глубина : 8 бит
Тип развёртки : Прогрессивная
Метод сжатия : С потерями
Бит/(Пиксели*Кадры) : 0.284
Размер потока : 524 Мбайт (87%)
Библиотека кодирования : DivX 6.1.0 (UTC 2005-12-12)
Аудио
Идентификатор : 1
Формат : AC-3
Формат/Информация : Audio Coding 3
Расширение режима : CM (complete main)
Параметр Endianness формата : Big
Идентификатор кодека : 2000
Продолжительность : 52 м.
Вид битрейта : Постоянный
Битрейт : 192 Кбит/сек
Каналы : 2 канала
Расположение каналов : Front: L R
Частота : 48,0 КГц
Частота кадров : 31,250 кадров/сек (1536 spf)
Метод сжатия : С потерями
Размер потока : 72,7 Мбайт (12%)
Выравнивание : Разделение по промежуткам
Продолжительность промежутка : 40 мс. (1,00 видеокадр)
Время предзагрузки промежутка : 500 мс.

Скриншоты


[cybertorrent.ru].t3.torrent 
Торрент: Зарегистрирован [ 2018-02-15 13:57 ] · 4894C50CB8A9403ED8492618AD48CE3B3368E6E8

Скачать .torrent

Скачать

18 KB

Статус: проверено
Скачан: 0 раз
Размер: 1,76 GB
Профиль [ЛС]
Показать сообщения:    

Текущее время: 23-Май 16:36

Часовой пояс: UTC ± 0



Вы не можете начинать темы
Вы не можете отвечать на сообщения
Вы не можете редактировать свои сообщения
Вы не можете удалять свои сообщения
Вы не можете голосовать в опросах
Вы не можете прикреплять файлы к сообщениям
Вы можете скачивать файлы