Статистика раздачи
Размер:  912 MB   |    Зарегистрирован:  3 месяца 8 дней   |    Скачан:  0 раз

Полного источника не было: Никогда

 
   
 
 

lopster ®

Пол:
Не указан
Стаж:
3 месяца 8 дней
Сообщений:
612

Кактус и Елена
Год выпуска: 2007
Жанр: Мелодрама
Продолжительность: 01:35:19
Режиссер: Владимир Балкашинов
В ролях: Татьяна Арнтгольц,Александр Пашков,Кирилл Жандаров,Донатас Грудович,Юрий Горбунов
Описание: Кактус-это прозвище обаятельного молодого человека, а имя у него самое обыкновенное-Дима. Он с юных лет влюблен в прелестную девушку по имени Елена. Но путь к сердцу красавицы, как это часто бывает, оказывается тернистым.
Однажды пылкий поклонник узнает, что его пассия встречается с его же одноклассником Олегом Самохваловым, сыном известного и влиятельного в городе прокурора. К несчастью, отец соперника Самохвалов-старший, в жизни очень коварный и мстительный человек, начинает травлю Кактуса и всячески препятствует его общению с Еленой.
Доп. информация: Рип от
Все раздачи фильма: Кактус и Елена
Качество: SATRip
Формат: AVI
Видео кодек: DivX
Аудио кодек: MP3
Видео: 640x350; 25.000 fps; DivX 5.0; 1204 kb/s
Аудио: MPEG Layer 3, 2 ch; 128 kb/s; 41 kHz

MI

Код:Общее
Полное имя : C:\otkat\Видео\Кактус и Елена\Kaktus_i_Elena.avi[torrents.ru].avi
Формат : AVI
Формат/Информация : Audio Video Interleave
Размер файла : 912 Мбайт
Продолжительность : 1 ч. 35 м.
Общий поток : 1338 Кбит/сек
Библиотека кодирования : VirtualDub-MPEG2 build 24417/release
Видео
Идентификатор : 0
Формат : MPEG-4 Visual
Параметр BVOP формата : 1
Параметр QPel формата : Нет
Параметр GMC формата : Без точки перехода
Параметр матрицы формата : Default (H.263)
Режим смешивания : Сжатый битовый поток
Идентификатор кодека : DX50
Идентификатор кодека/Подсказка : DivX 5
Продолжительность : 1 ч. 35 м.
Битрейт : 1201 Кбит/сек
Ширина : 640 пикселей
Высота : 350 пикселей
Соотношение сторон : 1,85:1
Частота кадров : 25,000 кадров/сек
Цветовое пространство : YUV
Субдискретизация насыщенности : 4:2:0
Битовая глубина : 8 бит
Тип развёртки : Прогрессивная
Метод сжатия : С потерями
Бит/(Пиксели*Кадры) : 0.214
Размер потока : 818 Мбайт (90%)
Библиотека кодирования : DivX 5.1.1 (Maupiti) (UTC 2003-11-19)
Аудио
Идентификатор : 1
Формат : MPEG Audio
Версия формата : Version 1
Профиль формата : Layer 3
Режим : Joint stereo
Расширение режима : MS Stereo
Идентификатор кодека : 55
Идентификатор кодека/Подсказка : MP3
Продолжительность : 1 ч. 35 м.
Вид битрейта : Постоянный
Битрейт : 128 Кбит/сек
Каналы : 2 канала
Частота : 44,1 КГц
Метод сжатия : С потерями
Размер потока : 87,3 Мбайт (10%)
Выравнивание : Разделение по промежуткам
Продолжительность промежутка : 40 мс. (1,00 видеокадр)
Время предзагрузки промежутка : 500 мс.

Скриншоты


[cybertorrent.ru].t30.torrent 
Торрент: Зарегистрирован [ 2018-02-15 13:57 ] · 14EAB4DA8EC7983010A0625E4DDF83CD1BD1F260

Скачать .torrent

Скачать

18 KB

Статус: проверено
Скачан: 0 раз
Размер: 912 MB
Профиль [ЛС]
Показать сообщения:    

Текущее время: 23-Май 16:40

Часовой пояс: UTC ± 0



Вы не можете начинать темы
Вы не можете отвечать на сообщения
Вы не можете редактировать свои сообщения
Вы не можете удалять свои сообщения
Вы не можете голосовать в опросах
Вы не можете прикреплять файлы к сообщениям
Вы можете скачивать файлы