Статистика раздачи
Размер:  2,05 GB   |    Зарегистрирован:  3 месяца 12 дней   |    Скачан:  0 раз

Полного источника не было: Никогда

 
   
 
 

lopster ®

Пол:
Не указан
Стаж:
3 месяца 12 дней
Сообщений:
612

Время первых«Подними голову!»- Жанр: приключения, триллер
Год выпуска: 2017
Продолжительность: 02:14:38
Режиссер: Дмитрий Киселёв
В ролях: Евгений Миронов (Алексей Леонов), Константин Хабенский (Павел Беляев), Владимир Ильин (Сергей Павлович Королев), Анатолий Котенёв (Николай Петрович Каманин), Александра Урсуляк (Светлана Леонова), Елена Панова (Татьяна Беляева), Александр Новин (Евгений Хрунов), Марта Тимофеева (Виктория Леонова), Геннадий Смирнов (Константин Феоктистов), Юрий Нифонтов (Борис Раушенбах), Юрий Ицков (Борис Черток), Валерий Гришко (Леонид Брежнев)
Описание: 60-е. Разгар холодной войны. Две супердержавы, СССР и США бьются за первенство в космической гонке. Пока СССР впереди, на очереди — выход человека в открытый космос.
За две недели до старта взрывается тестовый корабль. Времени на выявление причин нет. И пусть риски огромны, мы не можем уступить лидерство.
Опытный военный летчик Павел Беляев и его напарник Алексей Леонов, необстрелянный и горячий, мечтающий о подвиге, — два человека, готовые шагнуть в неизвестность. Но никто не мог даже предположить всего, с чем им предстояло столкнуться в полете. В этой миссии все, что только можно, пошло не так…- -Качество: WEB-DLRip-AVC (исходник -Vremya.Pervyh.2017.1080p.WEB-DL.Rus.HDCLUB)
Формат видео: MKV
Видео: x264, 1080x460 (2.35:1) 25 fps, ~1749 kbps, 0,141 bit/pixel
Аудио: 48 kHz, AC3 Dolby Digital, 5.1 (Front: L C R, Side: L R, LFE) ch, ~384 kbps-

MediaInfo | x264 log

Format : Matroska
Format version : Version 4 / Version 2
File size : 2.05 GiB
Duration : 2 h 14 min
Overall bit rate : 2 177 kb/s
Movie name : Время первых (2017) :: AFM ::
Encoded date : UTC 2017-05-17 21:49:02
Writing application : mkvmerge v8.3.0 ('Over the Horizon') 32bit
Writing library : libebml v1.3.1 + libmatroska v1.4.2
Video
ID : 1
Format : AVC
Format/Info : Advanced Video Codec
Format profile : High@L4.1
Format settings, CABAC : Yes
Format settings, ReFrames : 11 frames
Codec ID : V_MPEG4/ISO/AVC
Duration : 2 h 14 min
Bit rate : 1 750 kb/s
Width : 1 080 pixels
Height : 460 pixels
Display aspect ratio : 2.35:1
Frame rate mode : Constant
Frame rate : 25.000 FPS
Color space : YUV
Chroma subsampling : 4:2:0
Bit depth : 8 bits
Scan type : Progressive
Bits/(Pixel*Frame) : 0.141
Stream size : 1.65 GiB (80%)
Title : WEB-DLRip by AFM
Writing library : x264 core 150 r2818+45 3daaad6 7mod [8-bit@all X86_64]
Encoding settings : cabac=1 / ref=11 / deblock=1:-3:-2 / analyse=0x3:0x113 / me=umh / subme=10 / psy=1 / fade_compensate=0.00 / psy_rd=1.00:0.00 / mixed_ref=1 / me_range=32 / chroma_me=0 / trellis=2 / 8x8dct=1 / cqm=0 / deadzone=21,11 / fast_pskip=0 / chroma_qp_offset=-2 / threads=6 / lookahead_threads=1 / sliced_threads=0 / nr=0 / decimate=1 / interlaced=0 / bluray_compat=0 / constrained_intra=0 / fgo=0 / bframes=12 / b_pyramid=2 / b_adapt=2 / b_bias=0 / direct=1 / weightb=1 / open_gop=0 / weightp=2 / keyint=250 / keyint_min=25 / scenecut=40 / intra_refresh=0 / rc_lookahead=60 / rc=crf / mbtree=0 / crf=18.5000 / qcomp=0.65 / qpmin=0:0:0 / qpmax=69:69:69 / qpstep=4 / vbv_maxrate=50000 / vbv_bufsize=62500 / crf_max=0.0 / nal_hrd=none / filler=0 / ip_ratio=1.35 / pb_ratio=1.30 / aq=3:0.80 / aq-sensitivity=10.00 / aq-factor=1.00:1.00:1.00 / aq2=0 / aq3=0 / zones=194320,201950,q=30
Language : Russian
Default : Yes
Forced : No
Audio
ID : 2
Format : AC-3
Format/Info : Audio Coding 3
Mode extension : CM (complete main)
Format settings, Endianness : Big
Codec ID : A_AC3
Duration : 2 h 14 min
Bit rate mode : Constant
Bit rate : 384 kb/s
Channel(s) : 6 channels
Channel positions : Front: L C R, Side: L R, LFE
Sampling rate : 48.0 kHz
Frame rate : 31.250 FPS (1536 spf)
Compression mode : Lossy
Stream size : 370 MiB (18%)
Title : AC3 5.1 ~384 kbps
Language : Russian
Default : Yes
Forced : No
Menu
00:00:00.000 : en:1
00:07:37.200 : en:2
00:13:56.520 : en:3
00:20:01.400 : en:4
00:26:51.760 : en:5
00:33:42.360 : en:6
00:42:02.960 : en:7
00:47:53.160 : en:8
00:53:09.640 : en:9
00:58:44.080 : en:10
01:05:06.400 : en:11
01:10:47.320 : en:12
01:17:34.240 : en:13
01:24:57.960 : en:14
01:31:20.080 : en:15
01:37:35.200 : en:16
01:43:43.240 : en:17
01:50:47.440 : en:18
01:58:48.840 : en:19
02:05:18.120 : en:20

x264

x264 [info]: frame I:1832 Avg QP:17.02 size: 54080
x264 [info]: frame P:50234 Avg QP:18.46 size: 18977
x264 [info]: frame B:149884 Avg QP:21.38 size: 5045
x264 [info]: consecutive B-frames: 1.8% 2.7% 4.4% 70.0% 6.7% 12.2% 0.7% 0.6% 0.1% 0.2% 0.1% 0.1% 0.2%
x264 [info]: mb I I16..4: 5.8% 69.9% 24.3%
x264 [info]: mb P I16..4: 1.3% 8.2% 1.5% P16..4: 38.9% 28.8% 14.9% 0.0% 0.0% skip: 6.5%
x264 [info]: mb B I16..4: 0.1% 0.6% 0.1% B16..8: 36.8% 9.6% 2.4% direct: 5.0% skip:45.3% L0:36.8% L1:47.3% BI:16.0%
x264 [info]: 8x8 transform intra:73.3% inter:61.9%
x264 [info]: coded y,uvDC,uvAC intra: 81.8% 80.2% 54.9% inter: 18.8% 14.3% 2.4%
x264 [info]: i16 v,h,dc,p: 32% 19% 7% 42%
x264 [info]: i8 v,h,dc,ddl,ddr,vr,hd,vl,hu: 11% 11% 7% 9% 12% 12% 13% 11% 13%
x264 [info]: i4 v,h,dc,ddl,ddr,vr,hd,vl,hu: 12% 11% 4% 9% 15% 13% 13% 10% 12%
x264 [info]: i8c dc,h,v,p: 42% 25% 18% 15%
x264 [info]: Weighted P-Frames: Y:97.4% UV:3.9%
x264 [info]: ref P L0: 51.8% 12.2% 16.5% 5.3% 4.2% 2.8% 2.5% 1.3% 1.3% 1.0% 1.1% 0.1% 0.0%
x264 [info]: ref B L0: 82.1% 8.8% 3.5% 1.7% 1.2% 0.9% 0.7% 0.5% 0.3% 0.2%
x264 [info]: ref B L1: 96.6% 3.4%
x264 [info]: kb/s:1791.07

Скриншоты

[cybertorrent.ru].t300.torrent 
Торрент: Зарегистрирован [ 2018-02-15 15:48 ] · D840AAE5F2ACC49F261D7612C69FD392AEEE55A4

Скачать .torrent

Скачать

11 KB

Статус: проверено
Скачан: 0 раз
Размер: 2,05 GB
Профиль [ЛС]
Показать сообщения:    

Текущее время: 28-Май 03:06

Часовой пояс: UTC ± 0



Вы не можете начинать темы
Вы не можете отвечать на сообщения
Вы не можете редактировать свои сообщения
Вы не можете удалять свои сообщения
Вы не можете голосовать в опросах
Вы не можете прикреплять файлы к сообщениям
Вы можете скачивать файлы