Статистика раздачи
Размер:  1 GB   |    Зарегистрирован:  3 месяца 8 дней   |    Скачан:  0 раз

Полного источника не было: Никогда

 
   
 
 

lopster ®

Пол:
Не указан
Стаж:
3 месяца 8 дней
Сообщений:
612

Три дня до весны
Жанр: военный, детектив
Год выпуска: 2017
Продолжительность: 01:40:00
Режиссёр: Александр Касаткин
В ролях: Евгений Сидихин, Юрий Ицков, Владислав Абашин, Полина Красавина, Игорь Грабузов, Кирилл Плетнёв, Елена Лотова
Описание: Ленинград, февраль 1942 года. У офицера госбезопасности Андреева и молодого врача Марицкой есть всего 72 часа, чтобы предотвратить катастрофу. Жизнь и смерть, любовь и предательство переплетаются в стремительно развивающихся событиях…
Оригинал в DVD формате http://cybertorrent.ru/viewtopic.php?t=5406376
Сэмпл: https://yadi.sk/i/UAgRf5D_3JNmXM
Качество видео: DVDRip
Формат видео: AVI
Видео: XviD build 50/720x304 (2.37:1)/25 fps/1320 kbps avg/0.24 bit/pixel
Аудио: MPEG Layer 3/111.60 kbps avg/48 kHz/2 ch

MediaInfo

Формат : AVI
Формат/Информация : Audio Video Interleave
Размер файла : 1,00 Гбайт
Продолжительность : 1 ч. 39 м.
Режим общего битрейта : Переменный
Общий поток : 1446 Кбит/сек
Программа кодирования : VirtualDubMod 1.5.4.1 (build 2178/release)
Библиотека кодирования : VirtualDubMod build 2178/release
Видео
Идентификатор : 0
Формат : MPEG-4 Visual
Профиль формата : Advanced Simple@L5
Параметр BVOP формата : Нет
Параметр QPel формата : Нет
Параметр GMC формата : Без точки перехода
Параметр матрицы формата : Выборочная
Идентификатор кодека : XVID
Идентификатор кодека/Подсказка : XviD
Продолжительность : 1 ч. 39 м.
Битрейт : 1321 Кбит/сек
Ширина : 720 пикселей
Высота : 304 пикселя
Соотношение сторон : 2,35:1
Частота кадров : 25,000 кадров/сек
Цветовое пространство : YUV
Субдискретизация насыщенности : 4:2:0
Битовая глубина : 8 бит
Тип развёртки : Прогрессивная
Метод сжатия : С потерями
Бит/(Пиксели*Кадры) : 0.241
Размер потока : 937 Мбайт (91%)
Библиотека кодирования : XviD 1.2.1 (UTC 2008-12-04)
Аудио
Идентификатор : 1
Формат : MPEG Audio
Версия формата : Version 1
Профиль формата : Layer 3
Режим : Joint stereo
Расширение режима : MS Stereo
Идентификатор кодека : 55
Идентификатор кодека/Подсказка : MP3
Продолжительность : 1 ч. 39 м.
Вид битрейта : Переменный
Битрейт : 112 Кбит/сек
Номинальный битрейт : 128 Кбит/сек
Каналы : 2 канала
Частота : 48,0 КГц
Метод сжатия : С потерями
Размер потока : 79,2 Мбайт (8%)
Выравнивание : Соединение по промежуткам
Продолжительность промежутка : 24 мс. (0,60 видеокадр)
Время предзагрузки промежутка : 165 мс.
Библиотека кодирования : LAME3.98r
Настройки программы : -m j -V 4 -q 2 -lowpass 17 --abr 128

Скриншот c названием фильма

Скриншоты

[cybertorrent.ru].t302.torrent 
Торрент: Зарегистрирован [ 2018-02-15 15:48 ] · E719A5B40F9E7C6D71F3F7EF07A5A2B646F26E2D

Скачать .torrent

Скачать

10 KB

Статус: проверено
Скачан: 0 раз
Размер: 1 GB
Профиль [ЛС]
Показать сообщения:    

Текущее время: 23-Май 16:19

Часовой пояс: UTC ± 0



Вы не можете начинать темы
Вы не можете отвечать на сообщения
Вы не можете редактировать свои сообщения
Вы не можете удалять свои сообщения
Вы не можете голосовать в опросах
Вы не можете прикреплять файлы к сообщениям
Вы можете скачивать файлы