BitTorrent клиенты



(Pop) [CD] Al Bano & Romina Power - Che Angelo Sei - 1990 (1982), FLAC (image+.cue), lossless

Ответить на тему
Статистика раздачи
Размер:  211 MB   |    Зарегистрирован:  11 месяцев 14 дней   |    Скачан:  0 раз

Полного источника не было: Никогда

 
   
 
 
Автор Сообщение

Usagi ®

Пол: Не указан

Стаж: 1 год

Сообщений: 835

Создавать темы 07-Мар-2018 17:18

[Цитировать]

Al Bano & Romina Power / Che Angelo Sei
Жанр: Pop
Носитель: CD
Страна-производитель диска (релиза): Germany
Год издания: 1990 (1982)
Издатель (лейбл): Baby Records
Номер по каталогу: 256 455
Страна исполнителя (группы): Italy
Аудиокодек: FLAC (*.flac)
Тип рипа: image+.cue
Битрейт аудио: lossless
Продолжительность: 00:34:23
Источник (релизер): mart64val
Наличие сканов в содержимом раздачи: да
Треклист:
01. Che Angelo Sei [0:03:40.50]
02. Abbandonati [0:03:05.00]
03. Meditano [0:03:10.00]
04. Perche' [0:03:57.00]
05. Viaggiando [0:03:02.00]
06. Tu Soltanto Tu [0:03:41.00]
07. Parigi e' Bella [0:03:17.00]
08. 1961 [0:03:21.00]
09. Anche Tu [0:03:28.00]
10. Io Ti Cerco [0:03:40.25]

Лог создания рипа

Exact Audio Copy V1.0 beta 3 from 29. August 2011
Отчёт EAC об извлечении, выполненном 20. января 2018, 23:36
Al Bano & Romina Power / Che Angelo Sei
Дисковод: Optiarc DVD RW AD-7280S Adapter: 1 ID: 0
Режим чтения : Достоверность
Использование точного потока : Да
Отключение кэша аудио : Да
Использование указателей C2 : Нет
Коррекция смещения при чтении : 48
Способность читать области Lead-in и Lead-out : Нет
Заполнение пропущенных сэмплов тишиной : Да
Удаление блоков с тишиной в начале и конце : Нет
При вычислениях CRC использовались нулевые сэмплы : Да
Интерфейс : Встроенный Win32-интерфейс для Win NT/2000
Выходной формат : Пользовательский кодировщик
Выбранный битрейт : 768 kBit/s
Качество : Высокий
Добавление ID3-тега : Нет
Утилита сжатия : C:\Program Files (x86)\Exact Audio Copy\FLAC\FLAC.EXE
Дополнительные параметры : -8 -V -T "ARTIST=%artist%" -T "TITLE=%title%" -T "ALBUM=%albumtitle%" -T "DATE=%year%" -T "TRACKNUMBER=%tracknr%" -T "GENRE=%genre%" -T "COMMENT=%comment%" -T "BAND=%albuminterpret%" -T "ALBUMARTIST=%albuminterpret%" -T "COMPOSER=%composer%" %haslyrics%--tag-from-file=LYRICS="%lyricsfile%"%haslyrics% -T "DISCNUMBER=%cdnumber%" -T "TOTALDISCS=%totalcds%" -T "TOTALTRACKS=%numtracks%" %hascover%--picture="%coverfile%"%hascover% %source% -o %dest%
TOC извлечённого CD
Трек | Старт | Длительность | Начальный сектор | Конечный сектор
---------------------------------------------------------------------
1 | 0:00.38 | 3:40.50 | 38 | 16587
2 | 3:41.13 | 3:05.00 | 16588 | 30462
3 | 6:46.13 | 3:10.00 | 30463 | 44712
4 | 9:56.13 | 3:57.00 | 44713 | 62487
5 | 13:53.13 | 3:02.00 | 62488 | 76137
6 | 16:55.13 | 3:41.00 | 76138 | 92712
7 | 20:36.13 | 3:17.00 | 92713 | 107487
8 | 23:53.13 | 3:21.00 | 107488 | 122562
9 | 27:14.13 | 3:28.00 | 122563 | 138162
10 | 30:42.13 | 3:40.25 | 138163 | 154687
Характеристики диапазона извлечения и сообщения об ошибках
Выбранный диапазон
Имя файла D:\РАЗДАЧИ\Al Bano & Romina Power-Che Angelo Sei (1982-1990)\Al Bano & Romina Power - Che Angelo Sei.wav
Пиковый уровень 100.0 %
Скорость извлечения 6.7 X
Качество диапазона 100.0 %
CRC теста 6B6721CA
CRC копии 6B6721CA
Копирование... OK
Ошибок не произошло
AccurateRip: сводка
Трек 1 : извлечено точно (доверие 1) [9BC515ED] (AR v2)
Трек 2 : извлечено точно (доверие 1) [1245B638] (AR v2)
Трек 3 : извлечено точно (доверие 1) [12C09B3D] (AR v2)
Трек 4 : извлечено точно (доверие 1) [E808257A] (AR v2)
Трек 5 : извлечено точно (доверие 1) [CD1EA5A6] (AR v2)
Трек 6 : извлечено точно (доверие 1) [A903A252] (AR v2)
Трек 7 : извлечено точно (доверие 1) [365163DE] (AR v2)
Трек 8 : извлечено точно (доверие 1) [32791150] (AR v2)
Трек 9 : извлечено точно (доверие 1) [86173696] (AR v2)
Трек 10 : извлечено точно (доверие 1) [FBA262FD] (AR v2)
Все треки извлечены точно
Конец отчёта
==== Контрольная сумма отчёта A4FFA413E6A28CB6A13E85233118BF94354CAAF761B3B1E1FB0D89E2114B5E82 ====
[cybertorrent.ru].t30218.torrent 
Торрент: Зарегистрирован [ 2018-03-07 17:20 ] · 5BBF600576149C08945091B775C5CE15CAB4FF94

Скачать .torrent

Скачать

17 KB

Статус: проверено
Скачан: 0 раз
Размер: 211 MB
terms.php
[Профиль] [ЛС]
Показать сообщения:    
Ответить на тему

Текущее время: 22-Фев 02:39

Часовой пояс: UTC + 3



Вы не можете начинать темы
Вы не можете отвечать на сообщения
Вы не можете редактировать свои сообщения
Вы не можете удалять свои сообщения
Вы не можете голосовать в опросах
Вы не можете прикреплять файлы к сообщениям
Вы можете скачивать файлы