Статистика раздачи
Размер:  1,46 GB   |    Зарегистрирован:  3 месяца 10 дней   |    Скачан:  0 раз
Сидов:  960  [  0 KB/s  ]   Личеров:  22  [  0 KB/s  ]  
 
   
 
 

lopster ®

Пол:
Не указан
Стаж:
3 месяца 11 дней
Сообщений:
612

Три дня до весны- Год выпуска: 2016
Выпущено: Россия / Ленфильм
Жанр: военный, детектив
Продолжительность: 01:39:10-Режиссёр:
Александр Касаткин-В ролях:
Евгений Сидихин, Юрий Ицков, Владислав Абашин, Полина Красавина, Игорь Грабузов, Кирилл Плетнёв, Елена Лотова-Описание:
Ленинград, февраль 1942 года. У офицера госбезопасности Андреева и молодого врача Марицкой есть всего 72 часа, чтобы предотвратить катастрофу. Жизнь и смерть, любовь и предательство переплетаются в стремительно развивающихся событиях…-Релиз групп | | КиноПоиск | Сэмпл |-Качество: DVDRip [DVD5]
Формат: AVI
Видео: 720x304 (2.37:1), 25 fps, XviD build 67 ~1899 kbps avg, 0.35 bit/pixel
Аудио: 48 kHz, AC3 Dolby Digital, 2/0 (L,R) ch, ~192 kbps avg-

Скриншоты

-

MediaInfo

Код:Общее
Полное имя : D:\Tri_dnya_do vesny_2017_DVDRip_by_Dalemake.avi
Формат : AVI
Формат/Информация : Audio Video Interleave
Размер файла : 1,46 Гбайт
Продолжительность : 1 ч. 39 м.
Общий поток : 2101 Кбит/сек
Программа кодирования : VirtualDubMod 1.5.10.3 | www.virtualdub-fr.org || (build 2550/release)
Библиотека кодирования : VirtualDubMod build 2550/release
Видео
Идентификатор : 0
Формат : MPEG-4 Visual
Профиль формата : Advanced Simple@L5
Параметр BVOP формата : 1
Параметр QPel формата : Нет
Параметр GMC формата : Без точки перехода
Параметр матрицы формата : Выборочная
Идентификатор кодека : XVID
Идентификатор кодека/Подсказка : XviD
Продолжительность : 1 ч. 39 м.
Битрейт : 1900 Кбит/сек
Ширина : 720 пикселей
Высота : 304 пикселя
Соотношение сторон : 2,35:1
Частота кадров : 25,000 кадров/сек
Цветовое пространство : YUV
Субдискретизация насыщенности : 4:2:0
Битовая глубина : 8 бит
Тип развёртки : Прогрессивная
Метод сжатия : С потерями
Бит/(Пиксели*Кадры) : 0.347
Размер потока : 1,32 Гбайт (90%)
Библиотека кодирования : XviD 67
Аудио
Идентификатор : 1
Формат : AC-3
Формат/Информация : Audio Coding 3
Расширение режима : CM (complete main)
Параметр Endianness формата : Big
Идентификатор кодека : 2000
Продолжительность : 1 ч. 39 м.
Вид битрейта : Постоянный
Битрейт : 192 Кбит/сек
Каналы : 2 канала
Расположение каналов : Front: L R
Частота : 48,0 КГц
Битовая глубина : 16 бит
Метод сжатия : С потерями
Размер потока : 136 Мбайт (9%)
Выравнивание : Разделение по промежуткам
Продолжительность промежутка : 40 мс. (1,00 видеокадр)
Время предзагрузки промежутка : 500 мс.
-
[cybertorrent.ru].t308.torrent 
Торрент: Зарегистрирован [ 2018-02-15 15:48 ] · 99BA6A102D4908981219E320E72D3EA919C890B4

Скачать .torrent

Скачать

15 KB

Статус: проверено
Скачан: 0 раз
Размер: 1,46 GB
Профиль [ЛС]
Показать сообщения:    

Текущее время: 26-Май 15:45

Часовой пояс: UTC ± 0



Вы не можете начинать темы
Вы не можете отвечать на сообщения
Вы не можете редактировать свои сообщения
Вы не можете удалять свои сообщения
Вы не можете голосовать в опросах
Вы не можете прикреплять файлы к сообщениям
Вы можете скачивать файлы