Статистика раздачи
Размер:  2,49 GB   |    Зарегистрирован:  3 месяца 10 дней   |    Скачан:  0 раз

Полного источника не было: Никогда

 
   
 
 

lopster ®

Пол:
Не указан
Стаж:
3 месяца 11 дней
Сообщений:
612

Все раздачи || DVDRip-AVC 701 MB | DVDRip 746 MB | DVDRip 1,46 GB | DVD5 4,33 GB | DVD9 5,95 GB-Русская игра
Жанр: комедия
Год выпуска: 2007
Продолжительность: 01:35:25
Режиссер: Павел Чухрай
В ролях: Сергей Маковецкий, Сергей Гармаш, Андрей Мерзликин, Джулиано ди Капуа, Дмитрий Высоцкий, Авангард Леонтьев, Игнат Акрачков, Юрий Маслак, Дмитрий Таланцев, Павел Сборщиков
Описание: Экранизация пьесы Николая Гоголя «Игроки». Итальянский карточный шулер отправляется в Россию, чтобы расплатиться с долгами. В какой-то момент судьба сводит его с компанией развеселых русских жуликов, и они договариваются работать вместе.
Тип релиза: DVDRip-AVC (за исходный DVD9 спасибо Archgagen)
Контейнер: MKV
Видео: x264 | 676x576p @ 962x576p | 1,67:1 | 3280 kbps | 25 fps | High Profile 4.1
Аудио: Русский | AC-3 | 5.1 | 48.0 kHz | 448 kbps | Оригинал
Субтитры: Русские | SRT

Сэмпл
Сравнение с исходником

Скриншоты

MediaInfo

General
Unique ID : 219080446919904063787236055153207251520 (0xA4D15BFAC67D4F02AF4E1697841D9240)
Complete name : D:\Русская игра (2007) DVDRip-AVC.mkv
Format : Matroska
Format version : Version 2
File size : 2.49 GiB
Duration : 1 h 35 min
Overall bit rate : 3 730 kb/s
Encoded date : UTC 2017-05-24 01:30:28
Writing application : mkvmerge v12.0.0 ('Trust / Lust') 64bit
Writing library : libebml v1.3.4 + libmatroska v1.4.5
Video
ID : 1
Format : AVC
Format/Info : Advanced Video Codec
Format profile : High@L4.1
Format settings, CABAC : Yes
Format settings, ReFrames : 16 frames
Codec ID : V_MPEG4/ISO/AVC
Duration : 1 h 35 min
Bit rate : 3 280 kb/s
Width : 676 pixels
Height : 576 pixels
Display aspect ratio : 5:3
Original display aspect rat : 5:3
Frame rate mode : Constant
Frame rate : 25.000 FPS
Color space : YUV
Chroma subsampling : 4:2:0
Bit depth : 8 bits
Scan type : Progressive
Bits/(Pixel*Frame) : 0.337
Stream size : 2.19 GiB (88%)
Title : Русская игра
Writing library : x264 core 148 r2744 b97ae06
Encoding settings : cabac=1 / ref=16 / deblock=1:-1:-1 / analyse=0x3:0x133 / me=umh / subme=11 / psy=1 / psy_rd=1.25:0.10 / mixed_ref=1 / me_range=48 / chroma_me=1 / trellis=2 / 8x8dct=1 / cqm=0 / deadzone=21,11 / fast_pskip=0 / chroma_qp_offset=-3 / threads=6 / lookahead_threads=1 / sliced_threads=0 / nr=0 / decimate=1 / interlaced=0 / bluray_compat=0 / constrained_intra=0 / bframes=16 / b_pyramid=2 / b_adapt=2 / b_bias=0 / direct=3 / weightb=1 / open_gop=0 / weightp=2 / keyint=250 / keyint_min=25 / scenecut=40 / intra_refresh=0 / rc_lookahead=160 / rc=crf / mbtree=0 / crf=16.5 / qcomp=0.70 / qpmin=0 / qpmax=69 / qpstep=4 / vbv_maxrate=50000 / vbv_bufsize=62500 / crf_max=0.0 / nal_hrd=none / filler=0 / ip_ratio=1.40 / pb_ratio=1.30 / aq=1:0.60
Default : Yes
Forced : No
Color range : Limited
Color primaries : BT.601 PAL
Transfer characteristics : BT.470 System B, BT.470 System G
Matrix coefficients : BT.601
Audio
ID : 2
Format : AC-3
Format/Info : Audio Coding 3
Format settings, Endianness : Big
Codec ID : A_AC3
Duration : 1 h 35 min
Bit rate mode : Constant
Bit rate : 448 kb/s
Channel(s) : 6 channels
Channel positions : Front: L C R, Side: L R, LFE
Sampling rate : 48.0 kHz
Frame rate : 31.250 FPS (1536 spf)
Bit depth : 16 bits
Compression mode : Lossy
Stream size : 306 MiB (12%)
Title : Оригинал
Language : Russian
Service kind : Complete Main
Default : Yes
Forced : No
Text
ID : 3
Format : UTF-8
Codec ID : S_TEXT/UTF8
Codec ID/Info : UTF-8 Plain Text
Duration : 1 h 30 min
Bit rate : 87 b/s
Count of elements : 963
Stream size : 57.5 KiB (0%)
Title : Русские
Language : Russian
Default : No
Forced : No
Menu
00:00:00.000 : en:00:00:00.000
00:04:49.200 : en:00:04:49.200
00:17:00.000 : en:00:17:00.000
00:25:26.400 : en:00:25:26.400
00:34:59.400 : en:00:34:59.400
00:45:06.000 : en:00:45:06.000
00:51:38.400 : en:00:51:38.400
00:58:19.200 : en:00:58:19.200
01:07:17.400 : en:01:07:17.400
01:14:23.400 : en:01:14:23.400
01:21:01.200 : en:01:21:01.200
01:28:29.400 : en:01:28:29.400
01:35:24.600 : en:01:35:24.600

x264 log

x264 [info]: using SAR=64/45
x264 [info]: using cpu capabilities: MMX2 SSE2Fast SSSE3 SSE4.2 AVX FMA3 AVX2 LZCNT BMI2
x264 [info]: profile High, level 4.1
x264 [info]: frame I:1141 Avg QP:17.25 size: 63820
x264 [info]: frame P:28985 Avg QP:18.59 size: 32865
x264 [info]: frame B:113006 Avg QP:21.13 size: 11700
x264 [info]: consecutive B-frames: 1.2% 1.2% 9.7% 14.2% 8.1% 64.4% 0.6% 0.1% 0.1% 0.0% 0.1% 0.1% 0.0% 0.0% 0.0% 0.0% 0.1%
x264 [info]: mb I I16..4: 3.2% 81.6% 15.2%
x264 [info]: mb P I16..4: 0.5% 20.8% 2.6% P16..4: 24.5% 30.7% 14.6% 2.7% 0.3% skip: 3.3%
x264 [info]: mb B I16..4: 0.1% 2.6% 0.4% B16..8: 31.0% 25.6% 5.1% direct:10.8% skip:24.5% L0:31.1% L1:38.5% BI:30.3%
x264 [info]: 8x8 transform intra:85.7% inter:56.0%
x264 [info]: direct mvs spatial:100.0% temporal:0.0%
x264 [info]: coded y,uvDC,uvAC intra: 92.2% 90.7% 69.7% inter: 39.7% 32.1% 5.0%
x264 [info]: i16 v,h,dc,p: 40% 12% 7% 41%
x264 [info]: i8 v,h,dc,ddl,ddr,vr,hd,vl,hu: 18% 9% 11% 7% 10% 12% 8% 12% 12%
x264 [info]: i4 v,h,dc,ddl,ddr,vr,hd,vl,hu: 17% 21% 6% 6% 10% 13% 8% 10% 9%
x264 [info]: i8c dc,h,v,p: 33% 22% 27% 18%
x264 [info]: Weighted P-Frames: Y:3.2% UV:1.7%
x264 [info]: ref P L0: 44.3% 13.6% 18.9% 4.5% 4.8% 2.5% 2.9% 1.3% 1.5% 1.0% 1.2% 0.7% 0.9% 0.6% 0.8% 0.5%
x264 [info]: ref B L0: 85.6% 7.9% 2.2% 1.1% 0.7% 0.6% 0.4% 0.3% 0.2% 0.2% 0.2% 0.2% 0.1% 0.1% 0.1%
x264 [info]: ref B L1: 97.5% 2.5%
x264 [info]: kb/s:3280.21
encoded 143132 frames, 7.56 fps, 3280.21 kb/s
[cybertorrent.ru].t309.torrent 
Торрент: Зарегистрирован [ 2018-02-15 15:48 ] · CE1280D487C44E3B0B5707B7306FB9B69CC57D39

Скачать .torrent

Скачать

50 KB

Статус: проверено
Скачан: 0 раз
Размер: 2,49 GB
Профиль [ЛС]
Показать сообщения:    

Текущее время: 26-Май 15:17

Часовой пояс: UTC ± 0



Вы не можете начинать темы
Вы не можете отвечать на сообщения
Вы не можете редактировать свои сообщения
Вы не можете удалять свои сообщения
Вы не можете голосовать в опросах
Вы не можете прикреплять файлы к сообщениям
Вы можете скачивать файлы