Статистика раздачи
Размер:  597 MB   |    Зарегистрирован:  3 месяца 9 дней   |    Скачан:  0 раз

Полного источника не было: Никогда

 
   
 
 

lopster ®

Пол:
Не указан
Стаж:
3 месяца 9 дней
Сообщений:
612

Чем люди живы?
Жанр: Драма, притча
Год выпуска: 2008
Продолжительность: 00:37:27
Режиссёр: Александр Кушнир
В ролях: Валерий Плешко, Наталья Синявская, Алексей Шевцов, Ольга Кройтор, Вячеслав Колюжный, Марина Голянова, Александр Кушнир
Описание: «Чем люди живы?» - фильм-притча по рассказу Льва Толстого "ЧЕМ ЛЮДИ ЖИВЫ". Господь послал ангела на землю, чтобы тот, живя среди людей, смог узнать и понять: Что есть в людях? Чего не дано людям? И чем живы люди? Только тогда он сможет вернуться на небо.
Доп. информация: Призер православного кинофестиваля «Встреча» 2009.
Семпл
Релиз от :
Качество видео: DVDRip-AVC
Формат видео: MKV
Видео: MPEG4 Video (H264), 720x568@768x568, 25fps, 2000 Kbps, bit/pixel 0.196
Аудио: AC3, 48000Hz, stereo, 224 kbps, 2 ch

MediaInfo

x264 [info]: frame I:309 Avg QP:15.68 size: 68174
x264 [info]: frame P:12138 Avg QP:17.25 size: 26559
x264 [info]: frame B:43741 Avg QP:18.32 size: 4999
==================================================================
Общее
Уникальный идентификатор : 206384085689073193150570091708682025492 (0x9B44210A8EEC1DDD92778F2AF59B3A14)
Полное имя : D:\Чем люди живы (2008).mkv
Формат : Matroska
Версия формата : Version 2
Размер файла : 597 Мбайт
Продолжительность : 37 м. 27 с.
Общий поток : 2226 Кбит/сек
Дата кодирования : UTC 2017-05-24 12:55:03
Программа кодирования : mkvmerge v7.8.0 ('River Man') 32bit built on Apr 3 2015 12:11:22
Библиотека кодирования : libebml v1.3.1 + libmatroska v1.4.2
Видео
Идентификатор : 1
Формат : AVC
Формат/Информация : Advanced Video Codec
Профиль формата : High@L4.1
Параметр CABAC формата : Да
Параметр ReFrames формата : 15 кадров
Идентификатор кодека : V_MPEG4/ISO/AVC
Продолжительность : 37 м. 27 с.
Битрейт : 2000 Кбит/сек
Ширина : 720 пикселей
Высота : 568 пикселей
Соотношение сторон : 4:3
Режим частоты кадров : Постоянный
Частота кадров : 25,000 кадров/сек
Цветовое пространство : YUV
Субдискретизация насыщенности : 4:2:0
Битовая глубина : 8 бит
Тип развёртки : Прогрессивная
Бит/(Пиксели*Кадры) : 0.196
Размер потока : 525 Мбайт (88%)
Библиотека кодирования : x264 core 148 r2744kMod b97ae06
Настройки программы : cabac=1 / ref=15 / deblock=1:-2:-2 / analyse=0x3:0x133 / me=umh / subme=10 / psy=1 / fade_compensate=0.00 / psy_rd=1.05:0.10 / mixed_ref=1 / me_range=32 / chroma_me=1 / trellis=2 / 8x8dct=1 / cqm=0 / deadzone=21,11 / fast_pskip=0 / chroma_qp_offset=-3 / threads=6 / lookahead_threads=1 / sliced_threads=0 / nr=0 / decimate=0 / interlaced=0 / bluray_compat=0 / constrained_intra=0 / bframes=11 / b_pyramid=2 / b_adapt=2 / b_bias=0 / direct=3 / weightb=1 / open_gop=0 / weightp=2 / keyint=250 / keyint_min=25 / scenecut=40 / intra_refresh=0 / rc=2pass / mbtree=0 / bitrate=2000 / ratetol=1.0 / qcomp=0.63 / qpmin=0 / qpmax=39 / qpstep=4 / cplxblur=20.0 / qblur=0.5 / ip_ratio=1.10 / pb_ratio=1.30 / aq=1:1.00
Язык : Russian
Default : Да
Forced : Нет
Цветовой диапазон : Limited
Основные цвета : BT.601 PAL
Характеристики трансфера : BT.470 System B, BT.470 System G
Коэффициенты матрицы : BT.601
Аудио
Идентификатор : 2
Формат : AC-3
Формат/Информация : Audio Coding 3
Параметр Endianness формата : Big
Идентификатор кодека : A_AC3
Продолжительность : 37 м. 27 с.
Вид битрейта : Постоянный
Битрейт : 224 Кбит/сек
Каналы : 2 канала
Расположение каналов : Front: L R
Частота : 48,0 КГц
Частота кадров : 31,250 кадров/сек (1536 spf)
Битовая глубина : 16 бит
Метод сжатия : С потерями
Размер потока : 60,0 Мбайт (10%)
Язык : Russian
ServiceKind/String : Complete Main
Default : Да
Forced : Нет

Скриншоты

[cybertorrent.ru].t310.torrent 
Торрент: Зарегистрирован [ 2018-02-15 15:48 ] · 3B9AAE0F62B86AA0B4950BC254073376A27B9684

Скачать .torrent

Скачать

12 KB

Статус: проверено
Скачан: 0 раз
Размер: 597 MB
Профиль [ЛС]
Показать сообщения:    

Текущее время: 25-Май 08:55

Часовой пояс: UTC ± 0



Вы не можете начинать темы
Вы не можете отвечать на сообщения
Вы не можете редактировать свои сообщения
Вы не можете удалять свои сообщения
Вы не можете голосовать в опросах
Вы не можете прикреплять файлы к сообщениям
Вы можете скачивать файлы