Статистика раздачи
Размер:  1,36 GB   |    Зарегистрирован:  3 месяца 12 дней   |    Скачан:  0 раз
Сидов:  68  [  0 KB/s  ]   Личеров:  5  [  0 KB/s  ]  
 
   
 
 

lopster ®

Пол:
Не указан
Стаж:
3 месяца 12 дней
Сообщений:
612

Одиночка- Жанр: Мелодрама
Год выпуска: 2017
Продолжительность: 01:43:40
Режиссёр: Сергей Гиргель
В ролях: Инна Коляда, Илья Оболонков, Макар Кравченко, Марта Голубева, Зоя Антонова, Андрей Карако, Александра Гайдук, Анна Кисель, Михаил Голденков, Андрей Дробыш, Сергей Широчин, Дмитрий Гурбанович, Евгений Сташевский, Иван Вабищевич
Описание: В жизни коренной москвички Юлии «все по полочкам». Если питание – то здоровое, если одежда – то практичная, если работа – то постоянная. Есть у Юли и мужчина – ее непосредственный руководитель Роман. Он, правда, женат, да и Юле постоянно дает понять, что сама по себе она ничего интересного не представляет и без него, конечно же, пропадет. Но ведь ко всему можно привыкнуть. Зато постоянство. Подруга Машка пытается найти для Юли какого-нибудь «приличного мужчину». Но Юля только отмахивается – она одиночка. При этом у героини, которая по образованию социальный педагог-психолог, есть мечта – написать диссертацию и продолжить учебу в аспирантуре.
Сэмпл: http://multi-up.com/1155911
Качество видео: WEB-DLRip
Формат видео: AVI
Видео: 720x400 (16:9), 25.000 fps, XviD build 73, 1657 Kbps, 0.23 Bits/Pixel
Аудио: 48 kHz, AC3 Dolby Digital, 2 ch, 192 Kbps
Релиз:

MediaInfo

General
Complete name : Downloads\Odinochka.2016.WEB-DLRip.Files-x.avi
Format : AVI
Format/Info : Audio Video Interleave
File size : 1.36 GiB
Duration : 1h 44mn
Overall bit rate : 1 859 Kbps
Writing application : VirtualDubMod 1.5.10.3 | www.virtualdub-fr.org || (build 2550/release)
Writing library : VirtualDubMod build 2550/release
Video #0
ID : 0
Format : MPEG-4 Visual
Format profile : Advanced Simple@L5
Format settings, BVOP : 1
Format settings, QPel : No
Format settings, GMC : No warppoints
Format settings, Matrix : Custom
Codec ID : XVID
Codec ID/Hint : XviD
Duration : 1h 44mn
Bit rate : 1 657 Kbps
Width : 720 pixels
Height : 400 pixels
Display aspect ratio : 16:9
Frame rate : 25.000 fps
Color space : YUV
Chroma subsampling : 4:2:0
Bit depth : 8 bits
Scan type : Progressive
Compression mode : Lossy
Bits/(Pixel*Frame) : 0.230
Stream size : 1.21 GiB (89%)
Writing library : XviD 73
Audio #1
ID : 1
Format : AC-3
Format/Info : Audio Coding 3
Mode extension : CM (complete main)
Format settings, Endianness : Big
Codec ID : 2000
Duration : 1h 44mn
Bit rate mode : Constant
Bit rate : 192 Kbps
Channel(s) : 1 channel
Channel positions : Front: C
Sampling rate : 48.0 KHz
Bit depth : 16 bits
Compression mode : Lossy
Stream size : 144 MiB (10%)
Alignment : Split accross interleaves
Interleave, duration : 40 ms (1.00 video frame)
Interleave, preload duration : 500 ms

Скриншот c названием фильма

Скриншоты

[cybertorrent.ru].t312.torrent 
Торрент: Зарегистрирован [ 2018-02-15 15:48 ] · 263EF2A8D8B6B4A2235CC1F7BE035790AEE56860

Скачать .torrent

Скачать

14 KB

Статус: проверено
Скачан: 0 раз
Размер: 1,36 GB
Профиль [ЛС]
Показать сообщения:    

Текущее время: 28-Май 08:09

Часовой пояс: UTC ± 0



Вы не можете начинать темы
Вы не можете отвечать на сообщения
Вы не можете редактировать свои сообщения
Вы не можете удалять свои сообщения
Вы не можете голосовать в опросах
Вы не можете прикреплять файлы к сообщениям
Вы можете скачивать файлы