Статистика раздачи
Размер:  1,45 GB   |    Зарегистрирован:  3 месяца 8 дней   |    Скачан:  0 раз

Полного источника не было: Никогда

 
   
 
 

lopster ®

Пол:
Не указан
Стаж:
3 месяца 8 дней
Сообщений:
612

Вопреки здравому смыслу / Опровергая Евклида
Жанр: Мелодрама, криминал
Год выпуска: 2008
Продолжительность: 01:28:55
Режиссёр: Сайдо Курбанов
В ролях: Ирина Апексимова, Михаил Хмуров, Андрей Чернышов, Светлана Фатина, Андрей Биланов, Расми Джабраилов, Ирина Яковлева, Александр Симонец, Эдуард Марцевич, Борис Клюев, Юрий Гумиров
Описание: Марина – успешная бизнес-леди, специалист по ландшафтному дизайну. Более того, она – дочь замминистра строительства. И – счастливая невеста. Все складывается просто замечательно. Но вот Марина застает жениха в пикантной ситуации с фотомоделью и ...отменяет свадьбу. Чтобы отвлечься, она соглашается выполнить заказ своего старого знакомого Сергея Баринова - нынче владельца крупной строительной фирмы. Тот начинает активно ухаживать за Мариной, но - безуспешно. В это же время девушка знакомится с бывшим заключенным Богданом. Он - бывший компаньон Баринова – в свое время спас Сергея от смерти, а сам сел на 9 лет в тюрьму за убийство. Баринову тогда достался весь их совместный бизнес, поэтому сейчас Богдан расчитывает на половину нынешнего капитала бизнесмена. Баринову это, естественно, не нравится.Более того, между Мариной и Богданом завязываются нежные отношения, что еще больше раздражает Баринова. Он пытается унизить и прогнать Богдана. Во время драки возникает пистолет Сергея, из которого тот ранит появившегося отца Марины. Но Баринов обвиняет во всем Богдана, и тому грозит новое заключение.....
Доп. информация:
Автор релиза -
Источник аудио и видео для рипа - HDTV 1080i TS - моя запись с канала Наш Кинороман HD



Сэмпл: https://yadi.sk/i/-PVOW9-q3JgSzw
Рекламы нет!
Качество видео: HDTVRip
Формат видео: AVI
Видео: XviD, 720x400 (16:9), 25.000 fps, 1884 kbps, 0.262 bit/pixel
Аудио: Русский AC3, 48000 Гц, 6ch, 448 kbps

MediaInfo

Общее
Полное имя : D:\Вопреки.здравому.смыслу.2008.HDTVRip-ylnian.avi
Формат : AVI
Формат/Информация : Audio Video Interleave
Размер файла : 1,45 Гбайт
Продолжительность : 1 ч. 28 м.
Общий поток : 2341 Кбит/сек
Название фильма : Вопреки.здравому.смыслу.2007.HDTVRip-ylnian
Программа кодирования : VirtualDubMod 1.5.10.2 (build 2540/release)
Библиотека кодирования : VirtualDubMod build 2540/release
Видео
Идентификатор : 0
Формат : MPEG-4 Visual
Профиль формата : Advanced Simple@L5
Параметр BVOP формата : 1
Параметр QPel формата : Нет
Параметр GMC формата : Без точки перехода
Параметр матрицы формата : Default (MPEG)
Идентификатор кодека : XVID
Идентификатор кодека/Подсказка : XviD
Продолжительность : 1 ч. 28 м.
Битрейт : 1884 Кбит/сек
Ширина : 720 пикселей
Высота : 400 пикселей
Соотношение сторон : 16:9
Частота кадров : 25,000 кадров/сек
Цветовое пространство : YUV
Субдискретизация насыщенности : 4:2:0
Битовая глубина : 8 бит
Тип развёртки : Прогрессивная
Метод сжатия : С потерями
Бит/(Пиксели*Кадры) : 0.262
Размер потока : 1,17 Гбайт (80%)
Библиотека кодирования : XviD 67
Аудио
Идентификатор : 1
Формат : AC-3
Формат/Информация : Audio Coding 3
Параметр Endianness формата : Big
Идентификатор кодека : 2000
Продолжительность : 1 ч. 28 м.
Вид битрейта : Постоянный
Битрейт : 448 Кбит/сек
Каналы : 6 каналов
Расположение каналов : Front: L C R, Side: L R, LFE
Частота : 48,0 КГц
Частота кадров : 31,250 кадров/сек (1536 spf)
Битовая глубина : 16 бит
Метод сжатия : С потерями
Размер потока : 285 Мбайт (19%)
Выравнивание : Разделение по промежуткам
Продолжительность промежутка : 40 мс. (1,00 видеокадр)
Время предзагрузки промежутка : 500 мс.
Заголовок : RUS
ServiceKind/String : Complete Main

Сравнение

Сравнение скриншотов с DVDRip-ом - http://screenshotcomparison.com/comparison/211366
DVDRip --->>> HDTVRip
--->>>
--->>>
--->>>
[cybertorrent.ru].t315.torrent 
Торрент: Зарегистрирован [ 2018-02-15 15:48 ] · FEE744FACEB450294C40E23FB0AB96120EB278C9

Скачать .torrent

Скачать

15 KB

Статус: проверено
Скачан: 0 раз
Размер: 1,45 GB
Профиль [ЛС]
Показать сообщения:    

Текущее время: 23-Май 16:30

Часовой пояс: UTC ± 0



Вы не можете начинать темы
Вы не можете отвечать на сообщения
Вы не можете редактировать свои сообщения
Вы не можете удалять свои сообщения
Вы не можете голосовать в опросах
Вы не можете прикреплять файлы к сообщениям
Вы можете скачивать файлы