Статистика раздачи
Размер:  1,37 GB   |    Зарегистрирован:  3 месяца 12 дней   |    Скачан:  0 раз

Полного источника не было: Никогда

 
   
 
 

lopster ®

Пол:
Не указан
Стаж:
3 месяца 12 дней
Сообщений:
612

Жизнь без Веры - Жанр: Мелодрама
Год выпуска: 2016
Продолжительность: 01:27:30-Режиссёр: Александр Хван-В ролях: Дарья Пармененкова, Юля Чулина, Александр Соколовский, Владислав Канопка, Андрей Олиференко, Жанетта Зарембо, Арсений Врагов, Вадим Гайдуковский, Дмитрий Егоров (III), Сергей Карбовский, Виктория Ломоносова, Дарья Данцевич, Павел Адамчиков, Анна Кисель-Описание: Вера и Вася - студенты педагогического университета. На первый взгляд, они такие разные – отличница и боксер. Но у них есть то, что их сближает – это вера в любовь, в дружбу, в человека. Очень скоро Вера и Вася понимают, что любят друг друга. Но не все рады их счастью.-Сэмпл: http://multi-up.com/1156390-Качество видео: HDTVRip
Формат видео: AVI
Видео: 720x400 (16:9), 25.000 fps, XviD build 73, 2042 Kbps, 0.28 bits/pixel
Аудио: 48 KHz, AC3 Dolby Digital, 2 ch, 192 Kbps
Релиз от:

MediaInfo

General
Complete name : Downloads\Zyzn.bez.Very.2017..HDTVRip.Files-x.avi
Format : AVI
Format/Info : Audio Video Interleave
File size : 1.37 GiB
Duration : 1h 27mn
Overall bit rate : 2 244 Kbps
Writing application : VirtualDubMod 1.5.10.3 | www.virtualdub-fr.org || (build 2550/release)
Writing library : VirtualDubMod build 2550/release
Video #0
ID : 0
Format : MPEG-4 Visual
Format profile : Advanced Simple@L5
Format settings, BVOP : 1
Format settings, QPel : No
Format settings, GMC : No warppoints
Format settings, Matrix : Custom
Codec ID : XVID
Codec ID/Hint : XviD
Duration : 1h 27mn
Bit rate : 2 042 Kbps
Width : 720 pixels
Height : 400 pixels
Display aspect ratio : 16:9
Frame rate : 25.000 fps
Color space : YUV
Chroma subsampling : 4:2:0
Bit depth : 8 bits
Scan type : Progressive
Compression mode : Lossy
Bits/(Pixel*Frame) : 0.284
Stream size : 1.25 GiB (91%)
Writing library : XviD 73
Audio #1
ID : 1
Format : AC-3
Format/Info : Audio Coding 3
Mode extension : CM (complete main)
Format settings, Endianness : Big
Codec ID : 2000
Duration : 1h 27mn
Bit rate mode : Constant
Bit rate : 192 Kbps
Channel(s) : 2 channels
Channel positions : Front: L R
Sampling rate : 48.0 KHz
Bit depth : 16 bits
Compression mode : Lossy
Stream size : 120 MiB (9%)
Alignment : Split accross interleaves
Interleave, duration : 40 ms (1.00 video frame)
Interleave, preload duration : 500 ms

Скриншот c названием фильма

Скриншоты

[cybertorrent.ru].t317.torrent 
Торрент: Зарегистрирован [ 2018-02-15 15:48 ] · 9546BC06F6751B8E71EBE543B3C1CA1DDC74E6C5

Скачать .torrent

Скачать

14 KB

Статус: проверено
Скачан: 0 раз
Размер: 1,37 GB
Профиль [ЛС]
Показать сообщения:    

Текущее время: 28-Май 03:18

Часовой пояс: UTC ± 0



Вы не можете начинать темы
Вы не можете отвечать на сообщения
Вы не можете редактировать свои сообщения
Вы не можете удалять свои сообщения
Вы не можете голосовать в опросах
Вы не можете прикреплять файлы к сообщениям
Вы можете скачивать файлы