Статистика раздачи
Размер:  1,46 GB   |    Зарегистрирован:  3 месяца 12 дней   |    Скачан:  0 раз
Сидов:  7  [  0 KB/s  ]   Личеров:  8  [  0 KB/s  ]  
 
   
 
 

lopster ®

Пол:
Не указан
Стаж:
3 месяца 12 дней
Сообщений:
612

Исчезновение
Жанр: Мелодрама
Год выпуска: 2007
Продолжительность: 01:30:08
Режиссёр: Елена Стрижевская
В ролях: Дмитрий Дюжев, Ольга Сутулова, Елена Доронина (II), Пётр Савченко, Денис Беспалый, Олег Кузнецов, Мария Павлова, Виктория Фишер, Светлана Алексеева, Любовь Омельченко, Геннадий Шныптев, Виктор Борисов, Виктор Бунаков, Николай Сахаров, Наталия Корчагина, Элла Ярошевская, Анастасия Федоркова, Янна Мазазолина, Тимур Пантелеев, Юрий Лазуткин, Серафима Нечаева, Александр Чебанов
Описание: Катя и Сергей — счастливая семейная пара. У них совместный бизнес. Джип последней модели. Квартира в современном доме в центре города. Всё настолько хорошо и благополучно, что супруги уже подумывают о загородном трёхэтажном коттедже с бассейном. Но однажды всё изменилось — Сергей исчез. Катя начинает собственное расследование…
Доп. информация:
Автор релиза -
Источник аудио и видео для рипа - HDTV 1080i TS - моя запись с канала Наш Кинороман HD



Сэмпл: https://yadi.sk/i/4vsol4sY3JknVD
Рекламы нет!
Качество видео: HDTVRip
Формат видео: AVI
Видео: XviD, 720x400 (16:9), 25.000 fps, 1864 kbps, 0.259 bit/pixel
Аудио: Русский AC3, 48000 Гц, 6ch, 448 kbps

MediaInfo

Общее
Полное имя : D:\Исчезновение.2008.HDTVRip-ylnian.avi
Формат : AVI
Формат/Информация : Audio Video Interleave
Размер файла : 1,46 Гбайт
Продолжительность : 1 ч. 30 м.
Общий поток : 2321 Кбит/сек
Название фильма : Исчезновение.2007.HDTVRip-ylnian
Программа кодирования : VirtualDubMod 1.5.10.2 (build 2540/release)
Библиотека кодирования : VirtualDubMod build 2540/release
Видео
Идентификатор : 0
Формат : MPEG-4 Visual
Профиль формата : Advanced Simple@L5
Параметр BVOP формата : 1
Параметр QPel формата : Нет
Параметр GMC формата : Без точки перехода
Параметр матрицы формата : Default (MPEG)
Идентификатор кодека : XVID
Идентификатор кодека/Подсказка : XviD
Продолжительность : 1 ч. 30 м.
Битрейт : 1864 Кбит/сек
Ширина : 720 пикселей
Высота : 400 пикселей
Соотношение сторон : 16:9
Частота кадров : 25,000 кадров/сек
Цветовое пространство : YUV
Субдискретизация насыщенности : 4:2:0
Битовая глубина : 8 бит
Тип развёртки : Прогрессивная
Метод сжатия : С потерями
Бит/(Пиксели*Кадры) : 0.259
Размер потока : 1,17 Гбайт (80%)
Библиотека кодирования : XviD 67
Аудио
Идентификатор : 1
Формат : AC-3
Формат/Информация : Audio Coding 3
Параметр Endianness формата : Big
Идентификатор кодека : 2000
Продолжительность : 1 ч. 30 м.
Вид битрейта : Постоянный
Битрейт : 448 Кбит/сек
Каналы : 6 каналов
Расположение каналов : Front: L C R, Side: L R, LFE
Частота : 48,0 КГц
Частота кадров : 31,250 кадров/сек (1536 spf)
Битовая глубина : 16 бит
Метод сжатия : С потерями
Размер потока : 289 Мбайт (19%)
Выравнивание : Разделение по промежуткам
Продолжительность промежутка : 40 мс. (1,00 видеокадр)
Время предзагрузки промежутка : 500 мс.
Заголовок : RUS
ServiceKind/String : Complete Main

Сравнение

Сравнение скриншотов с DVDRip-ом - http://screenshotcomparison.com/comparison/211535
DVDRip --->>> HDTVRip
--->>>
--->>>
--->>>
[cybertorrent.ru].t318.torrent 
Торрент: Зарегистрирован [ 2018-02-15 15:48 ] · CDB5F2D655E6763BC5CE147AE019C91F12750A4D

Скачать .torrent

Скачать

15 KB

Статус: проверено
Скачан: 0 раз
Размер: 1,46 GB
Профиль [ЛС]
Показать сообщения:    

Текущее время: 28-Май 03:11

Часовой пояс: UTC ± 0



Вы не можете начинать темы
Вы не можете отвечать на сообщения
Вы не можете редактировать свои сообщения
Вы не можете удалять свои сообщения
Вы не можете голосовать в опросах
Вы не можете прикреплять файлы к сообщениям
Вы можете скачивать файлы