Статистика раздачи
Размер:  1,09 GB   |    Зарегистрирован:  3 месяца 6 дней   |    Скачан:  0 раз

Полного источника не было: Никогда

 
   
 
 

lopster ®

Пол:
Не указан
Стаж:
3 месяца 6 дней
Сообщений:
612

Послушай, Феллини!..
Жанр: драма
Год выпуска: 1993
Продолжительность: 01:07:40
Режиссёр: Михаил Швейцер
В ролях: Людмила Гурченко, Павел Семенихин, Герман Качин, Валерий Малышев
Описание: Драматическая исповедь по мотивам пьесы Евгения Козловского "Видео".Актриса обращается к Федерико Феллини, точнее, к его портрету, и, демонстрируя свое мастерство, рассказывает воображаемому великому мастеру эпизоды собственной жизни. Эту исполненную драматизма исповедь фиксирует кинокамера, а отснятый материал должен стать ее актерской пробой. По ходу своего рассказа она дает меткие оценки многим сторонам нашего неустроенного бытия. В рассказ актрисы органично вплетены сценки, где она поет, танцует, перевоплощается и где проявляется ее незаурядное актерское дарование, так и оставшееся невостребованным...
Доп. информация: Источник DVD: http://cybertorrent.ru/viewtopic.php?t=2016176
Обработка: чистка от пятен-царапин и небольшое сглаживание шума.
Сэмпл: http://multi-up.com/1156782
Качество видео: DVDRip
Формат видео: AVI
Видео: DivX 5, 704x528 (1.33:1), 25 fps, ~2113 kbps
Аудио: MPEG Layer 3, 192 kbps, 48 kHz, 2 ch

MediaInfo

Общее
Полное имя : H:\- - - ТОРРЕНТЫ\Послушай, Феллини!..(1993)_1,09.DivX\Poslushay_Fellini.avi
Формат : AVI
Формат/Информация : Audio Video Interleave
Размер файла : 1,09 Гбайт
Продолжительность : 1 ч. 7 м.
Общий поток : 2315 Кбит/сек
Библиотека кодирования : VirtualDub build 35491/release
Видео
Идентификатор : 0
Формат : MPEG-4 Visual
Параметр BVOP формата : 1
Параметр QPel формата : Нет
Параметр GMC формата : Без точки перехода
Параметр матрицы формата : Default (H.263)
Идентификатор кодека : DX50
Идентификатор кодека/Подсказка : DivX 5
Продолжительность : 1 ч. 7 м.
Битрейт : 2113 Кбит/сек
Ширина : 704 пикселя
Высота : 528 пикселей
Соотношение сторон : 4:3
Частота кадров : 25,000 кадров/сек
Цветовое пространство : YUV
Субдискретизация насыщенности : 4:2:0
Битовая глубина : 8 бит
Тип развёртки : Прогрессивная
Метод сжатия : С потерями
Бит/(Пиксели*Кадры) : 0.227
Размер потока : 1023 Мбайт (91%)
Библиотека кодирования : DivX 6.8.5 (UTC 2009-08-20)
Аудио
Идентификатор : 1
Формат : MPEG Audio
Версия формата : Version 1
Профиль формата : Layer 3
Режим : Joint stereo
Идентификатор кодека : 55
Идентификатор кодека/Подсказка : MP3
Продолжительность : 1 ч. 7 м.
Вид битрейта : Постоянный
Битрейт : 192 Кбит/сек
Каналы : 2 канала
Частота : 48,0 КГц
Метод сжатия : С потерями
Размер потока : 92,9 Мбайт (8%)
Выравнивание : Разделение по промежуткам
Продолжительность промежутка : 40 мс. (1,00 видеокадр)
Время предзагрузки промежутка : 500 мс.

Скриншот c названием фильма

Скриншоты

С начала марта 2017 российские провайдеры по указанию Роскомнадзора блокируют трекеры-анонсеры (bt, bt2, bt3, bt4) нашего ресурса.Что делать в случае проблем
http://cybertorrent.ru/viewtopic.php?t=5383659
[cybertorrent.ru].t319.torrent 
Торрент: Зарегистрирован [ 2018-02-15 15:48 ] · 9723846DA3C53CA786001D32DDC059CF3AB39D32

Скачать .torrent

Скачать

11 KB

Статус: проверено
Скачан: 0 раз
Размер: 1,09 GB
Профиль [ЛС]
Показать сообщения:    

Текущее время: 22-Май 00:16

Часовой пояс: UTC ± 0



Вы не можете начинать темы
Вы не можете отвечать на сообщения
Вы не можете редактировать свои сообщения
Вы не можете удалять свои сообщения
Вы не можете голосовать в опросах
Вы не можете прикреплять файлы к сообщениям
Вы можете скачивать файлы