Статистика раздачи
Размер:  1,46 GB   |    Зарегистрирован:  3 месяца 6 дней   |    Скачан:  0 раз

Полного источника не было: Никогда

Личеров:  9  [  0 KB/s  ]  
 
   
 
 

lopster ®

Пол:
Не указан
Стаж:
3 месяца 6 дней
Сообщений:
612

Лесное озеро
Жанр: Мелодрама
Год выпуска: 2012
Продолжительность: 01:27:43
Режиссёр: Станислав Мареев
В ролях: Виктория Толстоганова, Андрей Биланов, Дмитрий Харатьян, Лариса Лужина, София Игнатова, Марианна Шульц, Сергей Неудачин, Матвей Зубалевич, Елена Антипова, Иван Дубровский
Описание: Они не знали о существовании друг друга. Но встреча в сельской глуши на лесном озере перевернула всю их жизнь. Теперь они не могут друг без друга. Чистая и прозрачная вода озера очистила и души и тело… Да и что может быть приятнее что бы в жаркий летний день искупаться в освежающих водах природного озерца.
Доп. информация:
Автор релиза -
Источник аудио и видео для рипа - HDTV 1080i TS - моя запись с канала Россия-1 HD


Сэмпл: https://yadi.sk/i/nu3qrZ2d3Jmasu
Рекламы нет!
Качество видео: HDTVRip
Формат видео: AVI
Видео: XviD, 720x400 (16:9), 25.000 fps, 2178 kbps, 0.303 bit/pixel
Аудио: Русский AC3, 48000 Гц, 2ch, 192 kbps

MediaInfo

Общее
Полное имя : D:\Лесное.озеро.2012.HDTVRip-ylnian.avi
Формат : AVI
Формат/Информация : Audio Video Interleave
Размер файла : 1,46 Гбайт
Продолжительность : 1 ч. 27 м.
Общий поток : 2380 Кбит/сек
Название фильма : Лесное.озеро.2012.HDTVRip-ylnian
Программа кодирования : VirtualDubMod 1.5.10.2 (build 2540/release)
Библиотека кодирования : VirtualDubMod build 2540/release
Видео
Идентификатор : 0
Формат : MPEG-4 Visual
Профиль формата : Advanced Simple@L5
Параметр BVOP формата : 1
Параметр QPel формата : Нет
Параметр GMC формата : Без точки перехода
Параметр матрицы формата : Default (MPEG)
Идентификатор кодека : XVID
Идентификатор кодека/Подсказка : XviD
Продолжительность : 1 ч. 27 м.
Битрейт : 2178 Кбит/сек
Ширина : 720 пикселей
Высота : 400 пикселей
Соотношение сторон : 16:9
Частота кадров : 25,000 кадров/сек
Цветовое пространство : YUV
Субдискретизация насыщенности : 4:2:0
Битовая глубина : 8 бит
Тип развёртки : Прогрессивная
Метод сжатия : С потерями
Бит/(Пиксели*Кадры) : 0.303
Размер потока : 1,33 Гбайт (92%)
Библиотека кодирования : XviD 67
Аудио
Идентификатор : 1
Формат : AC-3
Формат/Информация : Audio Coding 3
Параметр Endianness формата : Big
Идентификатор кодека : 2000
Продолжительность : 1 ч. 27 м.
Вид битрейта : Постоянный
Битрейт : 192 Кбит/сек
Каналы : 2 канала
Расположение каналов : Front: L R
Частота : 48,0 КГц
Частота кадров : 31,250 кадров/сек (1536 spf)
Битовая глубина : 16 бит
Метод сжатия : С потерями
Размер потока : 120 Мбайт (8%)
Выравнивание : Разделение по промежуткам
Продолжительность промежутка : 40 мс. (1,00 видеокадр)
Время предзагрузки промежутка : 500 мс.
Заголовок : RUS
ServiceKind/String : Complete Main

Сравнение

Сравнение скриншотов с SATRip-ом - http://screenshotcomparison.com/comparison/211575
[cybertorrent.ru].t320.torrent 
Торрент: Зарегистрирован [ 2018-02-15 15:48 ] · D215E727F1FE6655D3E440E4FB4136C987F10246

Скачать .torrent

Скачать

15 KB

Статус: проверено
Скачан: 0 раз
Размер: 1,46 GB
Профиль [ЛС]
Показать сообщения:    

Текущее время: 21-Май 19:00

Часовой пояс: UTC ± 0



Вы не можете начинать темы
Вы не можете отвечать на сообщения
Вы не можете редактировать свои сообщения
Вы не можете удалять свои сообщения
Вы не можете голосовать в опросах
Вы не можете прикреплять файлы к сообщениям
Вы можете скачивать файлы