Статистика раздачи
Размер:  1,46 GB   |    Зарегистрирован:  3 месяца 9 дней   |    Скачан:  0 раз

Полного источника не было: Никогда

 
   
 
 

lopster ®

Пол:
Не указан
Стаж:
3 месяца 9 дней
Сообщений:
612

Золотое сечение / Сезон дождей
Жанр: Приключения
Год выпуска: 2010
Продолжительность: 01:31:37
Режиссёр: Сергей Дебижев
В ролях: Алексей Серебряков, Ксения Раппопорт, Николай Мартон, Даниил Шигапов, Виктор Вержбицкий, Наталья Дюфрес, Сергей Бугаев, Георгий Просаловский, Алина Ван Ортон, Алла Михеева
Описание: Главный герой фильма случайно натыкается на старинную фотографию, на которой с немалым удивлением узнает своего деда. Фото сделано в 1948 году в колониальной Камбодже, а дед, как известно герою, погиб во время Второй мировой войны. Выяснение обстоятельств меняет жизнь героя в неожиданном направлении.
Доп. информация:
Автор релиза -
Источник аудио и видео для рипа - HDTV 1080i TS - моя запись с канала Наш Кинороман HD



Сэмпл: https://yadi.sk/i/41wswyBN3JuKfj
Рекламы нет!
Качество видео: HDTVRip
Формат видео: AVI
Видео: XviD, 720x400 (16:9), 25.000 fps, 1816 kbps, 0.252 bit/pixel
Аудио: Русский AC3, 48000 Гц, 6ch, 448 kbps

MediaInfo

Общее
Полное имя : D:\Золотое.Сечение.2010.HDTVRip-ylnian.avi
Формат : AVI
Формат/Информация : Audio Video Interleave
Размер файла : 1,46 Гбайт
Продолжительность : 1 ч. 31 м.
Общий поток : 2274 Кбит/сек
Название фильма : Золотое Сечение - 2010 - HDTVRip - ylnian
Программа кодирования : VirtualDubMod 1.5.10.2 (build 2540/release)
Библиотека кодирования : VirtualDubMod build 2540/release
Видео
Идентификатор : 0
Формат : MPEG-4 Visual
Профиль формата : Advanced Simple@L5
Параметр BVOP формата : 1
Параметр QPel формата : Нет
Параметр GMC формата : Без точки перехода
Параметр матрицы формата : Default (MPEG)
Идентификатор кодека : XVID
Идентификатор кодека/Подсказка : XviD
Продолжительность : 1 ч. 31 м.
Битрейт : 1816 Кбит/сек
Ширина : 720 пикселей
Высота : 400 пикселей
Соотношение сторон : 16:9
Частота кадров : 25,000 кадров/сек
Цветовое пространство : YUV
Субдискретизация насыщенности : 4:2:0
Битовая глубина : 8 бит
Тип развёртки : Прогрессивная
Метод сжатия : С потерями
Бит/(Пиксели*Кадры) : 0.252
Размер потока : 1,16 Гбайт (80%)
Библиотека кодирования : XviD 67
Аудио
Идентификатор : 1
Формат : AC-3
Формат/Информация : Audio Coding 3
Параметр Endianness формата : Big
Идентификатор кодека : 2000
Продолжительность : 1 ч. 31 м.
Вид битрейта : Постоянный
Битрейт : 448 Кбит/сек
Каналы : 6 каналов
Расположение каналов : Front: L C R, Side: L R, LFE
Частота : 48,0 КГц
Частота кадров : 31,250 кадров/сек (1536 spf)
Битовая глубина : 16 бит
Метод сжатия : С потерями
Размер потока : 294 Мбайт (20%)
Выравнивание : Разделение по промежуткам
Продолжительность промежутка : 40 мс. (1,00 видеокадр)
Время предзагрузки промежутка : 500 мс.
Заголовок : RUS
ServiceKind/String : Complete Main

Сравнение

Сравнение скриншотов с SATRip-ом - http://screenshotcomparison.com/comparison/212034

Скриншоты

[cybertorrent.ru].t322.torrent 
Торрент: Зарегистрирован [ 2018-02-15 15:48 ] · F4C144B22630C4681EC50F92CD86681B791BDB05

Скачать .torrent

Скачать

15 KB

Статус: проверено
Скачан: 0 раз
Размер: 1,46 GB
Профиль [ЛС]
Показать сообщения:    

Текущее время: 25-Май 09:08

Часовой пояс: UTC ± 0



Вы не можете начинать темы
Вы не можете отвечать на сообщения
Вы не можете редактировать свои сообщения
Вы не можете удалять свои сообщения
Вы не можете голосовать в опросах
Вы не можете прикреплять файлы к сообщениям
Вы можете скачивать файлы