Статистика раздачи
Размер:  1,37 GB   |    Зарегистрирован:  3 месяца 7 дней   |    Скачан:  0 раз

Полного источника не было: Никогда

 
   
 
 

lopster ®

Пол:
Не указан
Стаж:
3 месяца 7 дней
Сообщений:
612

Мальчики + девочки =
Жанр: Драма, криминал, приключения
Год выпуска: 2014
Продолжительность: 01:22:22
Режиссёр: Евгений Соколов
В ролях: Артем Минин, Влада Лукина, Наталия Меньшова, Андрей Максимов, Федор Лавров, Вячеслав Манучаров, Ольга Тумайкина, Ольга Дыховичная, Семен Трескунов, Алексей Лукин, Анна Проскурина, Ольга Шашлыкова
Описание: По мотивам одноимённой повести Альги Кучкиной. Фильм о жизни подростков в мегаполисе. Все они из разных социальных слоев, но правила выживания в большом городе знакомы каждому из них не понаслышке. Главный герой пытается выжить с сестрой без родителей, которых они потерял в автокатастрофе.
Доп. информация:
Автор релиза -
Источник аудио и видео для рипа - HDTV 1080i TS - моя запись с канала Наш Кинороман HD



Сэмпл: https://yadi.sk/i/i2CDlgza3Jy95r
Рекламы нет!
Качество видео: HDTVRip
Формат видео: AVI
Видео: XviD, 720x400 (16:9), 25.000 fps, 1932 kbps, 0.268 bit/pixel
Аудио: Русский AC3, 48000 Гц, 6ch, 448 kbps

MediaInfo

Общее
Полное имя : D:\Мальчики+Девочки=.2014.HDTVRip-ylnian.avi
Формат : AVI
Формат/Информация : Audio Video Interleave
Размер файла : 1,37 Гбайт
Продолжительность : 1 ч. 22 м.
Общий поток : 2390 Кбит/сек
Название фильма : Мальчики+Девочки=.2014.HDTVRip-ylnian
Программа кодирования : VirtualDubMod 1.5.10.2 (build 2540/release)
Библиотека кодирования : VirtualDubMod build 2540/release
Видео
Идентификатор : 0
Формат : MPEG-4 Visual
Профиль формата : Advanced Simple@L5
Параметр BVOP формата : 1
Параметр QPel формата : Нет
Параметр GMC формата : Без точки перехода
Параметр матрицы формата : Default (MPEG)
Идентификатор кодека : XVID
Идентификатор кодека/Подсказка : XviD
Продолжительность : 1 ч. 22 м.
Битрейт : 1932 Кбит/сек
Ширина : 720 пикселей
Высота : 400 пикселей
Соотношение сторон : 16:9
Частота кадров : 25,000 кадров/сек
Цветовое пространство : YUV
Субдискретизация насыщенности : 4:2:0
Битовая глубина : 8 бит
Тип развёртки : Прогрессивная
Метод сжатия : С потерями
Бит/(Пиксели*Кадры) : 0.268
Размер потока : 1,11 Гбайт (81%)
Библиотека кодирования : XviD 67
Аудио
Идентификатор : 1
Формат : AC-3
Формат/Информация : Audio Coding 3
Параметр Endianness формата : Big
Идентификатор кодека : 2000
Продолжительность : 1 ч. 22 м.
Вид битрейта : Постоянный
Битрейт : 448 Кбит/сек
Каналы : 6 каналов
Расположение каналов : Front: L C R, Side: L R, LFE
Частота : 48,0 КГц
Частота кадров : 31,250 кадров/сек (1536 spf)
Битовая глубина : 16 бит
Метод сжатия : С потерями
Размер потока : 264 Мбайт (19%)
Выравнивание : Разделение по промежуткам
Продолжительность промежутка : 40 мс. (1,00 видеокадр)
Время предзагрузки промежутка : 500 мс.
Заголовок : RUS
ServiceKind/String : Complete Main

Награды

Специальный приз жюри международного фестиваля "Детектив ФЕСТ" (2015)
Призы от международного кинофестиваля «Отцы и дети» в городе Орле (2015):
1) Лауреат I степени (лучший фильм) "Мальчики+девочки="
2) «Лучшая главная мужская роль» - Минин Артём
3) «Лучшая главная женская роль» - Лукина Влада
4) "Лучшая музыка к фильму" - Алексей Кравцов
XIX Всероссийский фестиваль визуальных искусств в ВДЦ «Орлёнок»:
1) Диплом в номинации «Кинематограф» за разработку темы сохранения семьи в детском кино
2) Победитель в номинации «Лучшая женская роль» - Влада Лукина»
[cybertorrent.ru].t323.torrent 
Торрент: Зарегистрирован [ 2018-02-15 15:48 ] · 55B1AFC36ABDBF020DA14B3514E2741E533408E7

Скачать .torrent

Скачать

14 KB

Статус: проверено
Скачан: 0 раз
Размер: 1,37 GB
Профиль [ЛС]
Показать сообщения:    

Текущее время: 23-Май 07:25

Часовой пояс: UTC ± 0



Вы не можете начинать темы
Вы не можете отвечать на сообщения
Вы не можете редактировать свои сообщения
Вы не можете удалять свои сообщения
Вы не можете голосовать в опросах
Вы не можете прикреплять файлы к сообщениям
Вы можете скачивать файлы