Статистика раздачи
Размер:  2,56 GB   |    Зарегистрирован:  7 месяцев   |    Скачан:  0 раз

Полного источника не было: Никогда

   
 

Гость ®

Пол:
Не указан

Не спрашивай меня ни о чем
Жанр: мелодрама
Год выпуска: 1991
Продолжительность: 01:17:22
Режиссёр: Иван Бирюков, Роман Качанов
В ролях: Юозас Будрайтис, Вячеслав Невинный (мл.), Нина Русланова, Ирина Феофанова, Наталья Крачковская, Эммануил Виторган, Марьяна Полтева, Валерий Дик
Описание: Краткое содержание:
Героиня сообщает обоим возлюбленным о своей беременности, чтобы определить по их реакции, насколько серьезны чувства каждого из них. Забавная поначалу проделка превращается в серьезную драму...
Доп. информация: Оцифровка VHS (личный архив) и получение VHSRip alenavova
Эксклюзив для rutracker.org. При размещении данного релиза на других сайтах ссылка на автора alenavova обязательна.
Релиз
Семпл: https://yadi.sk/i/7YcGSEUbXeY1Gw
Качество видео: VHSRip
Формат видео: MPG
Видео: MPEG2 Video 720x576 (4:3) 25fps 4380kbps
Аудио: MPEG Audio 48000Hz 256kbps

MediaInfo

Не спрашивай меня ни о чем [by alenavova].mpg
Format : MPEG-PS
File size : 2.56 GiB
Duration : 1 h 17 min
Overall bit rate mode : Constant
Overall bit rate : 4 742 kb/s
Video
ID : 224 (0xE0)
Format : MPEG Video
Format version : Version 2
Format profile : Main@Main
Format settings : CustomMatrix / BVOP
Format settings, BVOP : Yes
Format settings, Matrix : Custom
Format settings, GOP : M=3, N=12
Format settings, picture struc : Frame
Duration : 1 h 17 min
Bit rate mode : Constant
Bit rate : 4 380 kb/s
Width : 720 pixels
Height : 576 pixels
Display aspect ratio : 4:3
Frame rate : 25.000 FPS
Standard : PAL
Color space : YUV
Chroma subsampling : 4:2:0
Bit depth : 8 bits
Scan type : Interlaced
Scan order : Top Field First
Compression mode : Lossy
Bits/(Pixel*Frame) : 0.422
Time code of first frame : 00:00:00:00
Time code source : Group of pictures header
GOP, Open/Closed : Open
GOP, Open/Closed of first fram : Closed
Stream size : 2.37 GiB (93%)
Audio
ID : 192 (0xC0)
Format : MPEG Audio
Format version : Version 1
Format profile : Layer 2
Duration : 1 h 17 min
Bit rate mode : Constant
Bit rate : 256 kb/s
Channel(s) : 2 channels
Sampling rate : 48.0 kHz
Frame rate : 41.667 FPS (1152 SPF)
Compression mode : Lossy
Stream size : 142 MiB (5%)
Menu

Скриншоты


[cybertorrent.ru].t324.torrent 
Торрент: Зарегистрирован [ 2019-03-18 10:04 ] · 95541382234862200CE659264718379D67C90980

Скачать .torrent

Скачать

13 KB

Статус: проверено
Скачан: 0 раз
Размер: 2,56 GB
terms.php
Показать сообщения:    

Текущее время: 19-Окт 04:08

Часовой пояс: UTC ± 0



Вы не можете начинать темы
Вы не можете отвечать на сообщения
Вы не можете редактировать свои сообщения
Вы не можете удалять свои сообщения
Вы не можете голосовать в опросах
Вы не можете прикреплять файлы к сообщениям
Вы можете скачивать файлы