Статистика раздачи
Размер:  1,37 GB   |    Зарегистрирован:  3 месяца 7 дней   |    Скачан:  0 раз

Полного источника не было: Никогда

 
   
 
 

lopster ®

Пол:
Не указан
Стаж:
3 месяца 7 дней
Сообщений:
612

Внеземной
Жанр: трагикомедия, фантастика, экранизация
Год выпуска: 2007
Продолжительность: 02:08:22
Режиссёр: Сергей Крутин
В ролях: Юрий Степанов, Сергей Баталов, Лариса Шахворостова, Виталий Линецкий, Лина Будник, Григорий Боковенко, Мирослав Белоногий, Римма Зюбина, Галина Опанасенко, Александр Гетманский, Анна Левченко
Описание: Фильм по роману Юрия Голиченко.
В основу сюжета легла история, произошедшая в России в 1996 году, в поселке Кыштым Челябинской области и известная под названием "Кыштымский карлик". Фильм не является документальным, поэтому история, произошедшая в Кыштыме, видоизменилась, но сущность интриги составляют ее основные факты.
В небольшом селе, неподалеку от Чернобыля, найдена мумия загадочного существа, внешне очень напоминающая пришельца. В процессе расследования, местный участковый (Юрий Степанов) выясняет, что гуманоида видели живым. Вот тут-то все и начинается! Расследование обрастает необъяснимыми аномальными фактами, но улики просто ускользают из рук, от Саши уходит жена, при странных обстоятельствах погибает старуха, нашедшая гуманоида, в деревне появляется уфолог и, в добавок ко всему, милиционера, бывшего чернобыльца, начинают преследовать видения! Теряя семью, друзей, репутацию, работу, участковый отчаянно идет к своей цели — понять «внеземное».
Награды:
2008 - Grand Remi Award на 41-м Международном фестивале независимого кино WorldFest в Хьюстоне,
2008 - приз за лучшую режиссуру на XXXII Международном телевизионном фестивале «Золотой ларец» в Пловдиве (Болгария).
Доп. информация: реклама отсутствует
Все раздачи фильма: Внеземной

Качество видео: DVDRip
Формат видео: AVI
Видео: DivX, 688х384 (1,79:1), 25 кадр/с, ~1389 Кбит/сек, 0,210 bit/pixel
Аудио: МР3, 48 kHz, 2 (L, R) ch, 128 Кбит/с

MediaInfo

Код:Общее
Полное имя : C:\otkat\Видео\Внеземной\Vnezemnoj.2007.DivX.DVDRip.avi
Формат : AVI
Формат/Информация : Audio Video Interleave
Размер файла : 1,37 Гбайт
Продолжительность : 2 ч. 8 м.
Общий поток : 1527 Кбит/сек
Программа кодирования : FairUse Wizard - http://fairusewizard.com
Библиотека кодирования : The best and REALLY easy backup tool
Видео
Идентификатор : 0
Формат : MPEG-4 Visual
Параметр BVOP формата : 1
Параметр QPel формата : Нет
Параметр GMC формата : Без точки перехода
Параметр матрицы формата : Default (H.263)
Режим смешивания : Сжатый битовый поток
Идентификатор кодека : DX50
Идентификатор кодека/Подсказка : DivX 5
Продолжительность : 2 ч. 8 м.
Битрейт : 1389 Кбит/сек
Ширина : 688 пикселей
Высота : 384 пикселя
Соотношение сторон : 16:9
Частота кадров : 25,000 кадров/сек
Цветовое пространство : YUV
Субдискретизация насыщенности : 4:2:0
Битовая глубина : 8 бит
Тип развёртки : Прогрессивная
Метод сжатия : С потерями
Бит/(Пиксели*Кадры) : 0.210
Размер потока : 1,25 Гбайт (91%)
Библиотека кодирования : DivX 6.7.0 (UTC 2007-09-20)
Аудио
Идентификатор : 1
Формат : MPEG Audio
Версия формата : Version 1
Профиль формата : Layer 3
Режим : Joint stereo
Расширение режима : MS Stereo
Идентификатор кодека : 55
Идентификатор кодека/Подсказка : MP3
Продолжительность : 2 ч. 8 м.
Вид битрейта : Постоянный
Битрейт : 128 Кбит/сек
Каналы : 2 канала
Частота : 48,0 КГц
Метод сжатия : С потерями
Размер потока : 118 Мбайт (8%)
Выравнивание : Соединение по промежуткам
Продолжительность промежутка : 40 мс. (1,00 видеокадр)
Время предзагрузки промежутка : 504 мс.
Библиотека кодирования : LAME3.97b
Настройки программы : -m j -V 4 -q 2 -lowpass 17 -b 128

Скриншот c названием фильма

Скриншоты


[cybertorrent.ru].t325.torrent 
Торрент: Зарегистрирован [ 2018-02-15 15:48 ] · ECCA2A00E782C285A9994073D0E10A95B0C3B00F

Скачать .torrent

Скачать

14 KB

Статус: проверено
Скачан: 0 раз
Размер: 1,37 GB
Профиль [ЛС]
Показать сообщения:    

Текущее время: 23-Май 07:25

Часовой пояс: UTC ± 0



Вы не можете начинать темы
Вы не можете отвечать на сообщения
Вы не можете редактировать свои сообщения
Вы не можете удалять свои сообщения
Вы не можете голосовать в опросах
Вы не можете прикреплять файлы к сообщениям
Вы можете скачивать файлы